↑↓Torrent.by
Поиск
Логин: Регистрация
Пароль: Восстановить пароль
Загрузка...

Портал / The Gateway (2018) WEB-DLRip-AVC от OlLanDGroup | HDRezka Studio

Скачать portal-the-gateway-2018-web-dlrip-avc-ot-ollandgroup-hdrezka-studio.torrent
U Магнитная ссылка Размер: 1.46 GB Раздают: 147 Качают: 52 Добавлен: 2018-09-04 14:48:43
Портал / The Gateway (2018) WEB-DLRip-AVC от OlLanDGroup | HDRezka Studio

Портал / The Gateway

Год выпуска: 2018
Страна: Австралия
Производство: Filmscope Entertainment
Жанр:  Фантастика

Режиссёр: Джон В. Сото
В ролях: Жаклин МакКензи, Майлс Поллард, Шеннон Берри, Хейли МакЭлхинни, Бен Мортли, Трой Кауорд, Адам Ти Перкинс, Джаг Панну, Джон МакФерсон

Перевод: Профессиональный (многоголосый, закадровый) | HDRezka Studio
Субтитры: Английские (полные, SDH)
Реклама: Отсутствует

Описание: Женщина-учёный, чья специализация — физика элементраных частиц, теряет мужа в автокатастрофе. Отчаяние толкает женщину на опасный эксперимент: она отправляется в параллельный мир, чтобы отыскать там погибшего супруга. Дальнейшие события доказывают, что телепортация ни к чему хорошему не приводит.

Качество: WEB-DLRip-AVC |
Продолжительность: 01:30:23

Формат: MKV
Видео кодек: MPEG-4 AVC
Аудио кодек: AC3
Видео: 1024x432 (2.40:1), 24,000 fps, x264 ~1 671 kbps avg, 0.157 bit/pixel
Аудио #1: 48 kHz, AC3 Dolby Digital, 2 (L,R) ch, ~192.00 kbps avg | RUS (HDRezka Studio)
Аудио #2: 48 kHz, AC3 Dolby Digital, 3/2 (L,C,R,l,r) + LFE ch, ~448.00 kbps avg | ENG

Дата премьеры (мир): 10 февраля 2018
Дата премьеры (РФ):

Релиз:


[+] MediaInfo

Общее
Уникальный идентификатор                 : 166711003918086549870859737616925885482 (0x7D6B5F1760C50770B3AD6FD0C9E0842A)
Полное имя                               : F:OlLanDGroupThe.Gateway.2018.WEB-DLRip(AVC).OlLanDGroup.mkv
Формат                                   : Matroska
Версия формата                           : Version 4 / Version 2
Размер файла                             : 1,46 Гбайт
Продолжительность                        : 1 ч. 30 м.
Общий поток                              : 2313 Кбит/сек
Название фильма                          : The.Gateway.2018   #TorpedoUK#
Дата кодирования                         : UTC 2018-09-04 08:12:09
Программа кодирования                    : mkvmerge v25.0.0 ('Prog Noir') 64-bit
Библиотека кодирования                   : libebml v1.3.6 + libmatroska v1.4.9

Видео
Идентификатор                            : 1
Формат                                   : AVC
Формат/Информация                        : Advanced Video Codec
Профиль формата                          : High@L4.1
Параметр CABAC формата                   : Да
Параметр ReFrames формата                : 10 кадров
Идентификатор кодека                     : V_MPEG4/ISO/AVC
Продолжительность                        : 1 ч. 30 м.
Битрейт                                  : 1671 Кбит/сек
Ширина                                   : 1024 пикселя
Высота                                   : 432 пикселя
Соотношение сторон                       : 2,40:1
Режим частоты кадров                     : Постоянный
Частота кадров                           : 24,000 кадра/сек
Цветовое пространство                    : YUV
Субдискретизация насыщенности            : 4:2:0
Битовая глубина                          : 8 бит
Тип развёртки                            : Прогрессивная
Бит/(Пиксели*Кадры)                      : 0.157
Размер потока                            : 1,05 Гбайт (72%)
Библиотека кодирования                   : x264 core 146 r2538 121396c
Настройки программы                      : cabac=1 / ref=10 / deblock=1:-2:-3 / analyse=0x3:0x113 / me=umh / subme=11 / psy=1 / psy_rd=0.97:0.07 / mixed_ref=1 / me_range=48 / chroma_me=1 / trellis=2 / 8x8dct=1 / cqm=0 / deadzone=21,11 / fast_pskip=1 / chroma_qp_offset=-3 / threads=6 / lookahead_threads=1 / sliced_threads=0 / nr=0 / decimate=1 / interlaced=0 / bluray_compat=0 / constrained_intra=0 / bframes=10 / b_pyramid=2 / b_adapt=2 / b_bias=0 / direct=3 / weightb=1 / open_gop=0 / weightp=2 / keyint=240 / keyint_min=24 / scenecut=40 / intra_refresh=0 / rc_lookahead=40 / rc=2pass / mbtree=1 / bitrate=1671 / ratetol=1.0 / qcomp=0.60 / qpmin=0 / qpmax=69 / qpstep=4 / cplxblur=20.0 / qblur=0.5 / vbv_maxrate=50000 / vbv_bufsize=62500 / nal_hrd=none / filler=0 / ip_ratio=1.40 / aq=1:1.00
Default                                  : Да
Forced                                   : Нет

Аудио #1
Идентификатор                            : 2
Формат                                   : AC-3
Формат/Информация                        : Audio Coding 3
Расширение режима                        : CM (complete main)
Параметр Endianness формата              : Big
Идентификатор кодека                     : A_AC3
Продолжительность                        : 1 ч. 30 м.
Вид битрейта                             : Постоянный
Битрейт                                  : 192 Кбит/сек
Каналы                                   : 2 канала
Расположение каналов                     : Front: L R
Частота                                  : 48,0 КГц
Частота кадров                           : 31,250 кадров/сек (1536 spf)
Битовая глубина                          : 16 бит
Метод сжатия                             : С потерями
Размер потока                            : 124 Мбайт (8%)
Заголовок                                : MVO [HDRezka Studio]
Язык                                     : Russian
Default                                  : Да
Forced                                   : Нет

Аудио #2
Идентификатор                            : 3
Формат                                   : AC-3
Формат/Информация                        : Audio Coding 3
Расширение режима                        : CM (complete main)
Параметр Endianness формата              : Big
Идентификатор кодека                     : A_AC3
Продолжительность                        : 1 ч. 30 м.
Вид битрейта                             : Постоянный
Битрейт                                  : 448 Кбит/сек
Каналы                                   : 6 каналов
Расположение каналов                     : Front: L C R, Side: L R, LFE
Частота                                  : 48,0 КГц
Частота кадров                           : 31,250 кадров/сек (1536 spf)
Битовая глубина                          : 16 бит
Метод сжатия                             : С потерями
Размер потока                            : 290 Мбайт (19%)
Заголовок                                : [Original]
Язык                                     : English
Default                                  : Нет
Forced                                   : Нет

Текст #1
Идентификатор                            : 4
Формат                                   : UTF-8
Идентификатор кодека                     : S_TEXT/UTF8
Идентификатор кодека/Информация          : UTF-8 Plain Text
Продолжительность                        : 1 ч. 22 м.
Битрейт                                  : 37 бит/сек
Count of elements                        : 855
Размер потока                            : 23,0 Кбайт (0%)
Заголовок                                : Full
Язык                                     : English
Default                                  : Нет
Forced                                   : Нет

Текст #2
Идентификатор                            : 5
Формат                                   : UTF-8
Идентификатор кодека                     : S_TEXT/UTF8
Идентификатор кодека/Информация          : UTF-8 Plain Text
Продолжительность                        : 1 ч. 23 м.
Битрейт                                  : 41 бит/сек
Count of elements                        : 933
Размер потока                            : 25,2 Кбайт (0%)
Заголовок                                : SDH
Язык                                     : English
Default                                  : Нет
Forced                                   : Нет



Скриншоты:
[+] Всего файлов в раздаче - 1:
The.Gateway.2018.WEB-DLRip(AVC).OlLanDGroup.mkv1.46 GB

Текущая раздача:
ДатаКомментарии    РазмерПиры
2018-09-04 U Портал / The Gateway (2018) WEB-DLRip-AVC от OlLanDGroup | HDRezka Studio 1.46 GB ↑ 147 ↓ 52

Похожие раздачи по запросу - портал:
2018-09-06 U Портал / The Gateway (2018) WEB-DLRip | HDrezka Studio 711.76 MB ↑ 39 ↓ 7
2018-09-04 U Портал / The Gateway (2018) WEB-DL 1080p от OlLanDGroup | HDRezka Studio 4.38 GB ↑ 115 ↓ 74
2018-02-27 U Портал / The Gateway (2018) WEB-DLRip | HDrezka Studio 1.46 GB ↑ 197 ↓ 29
2018-02-22 U Портал / The Gateway (2018) WEBRip 1O8Op | L 1К3.37 GB ↑ 131 ↓ 61
2018-02-20 U Портал / The Gateway (2018) WEBRip | L2 1.49 GB ↑ 714 ↓ 342
2018-02-20 U Портал / The Gateway (2018) WEBRip 720p | L2 2.25 GB ↑ 244 ↓ 117

Отзывы
Зарегистрируйтесь чтобы добавить комментарий.
Обратная связь
Copyleft ©