↑↓Torrent.by
Поиск
Логин: Регистрация
Пароль: Восстановить пароль
Загрузка...

Невидимый гость / Contratiempo (2016) BDRip 1080p от OlLanDGroup | Локализованная версия | Лицензия

Скачать nevidimyy-gost-contratiempo-2016-bdrip-1080p-ot-ollandgroup-lokalizovannaya-versiya-licenziya.torrent
U Магнитная ссылка Размер: 8.32 GB Раздают: 86 Качают: 51 Добавлен: 2018-09-05 15:38:18
Невидимый гость / Contratiempo (2016) BDRip 1080p от OlLanDGroup | Локализованная версия | Лицензия

Название: Невидимый гость
Оригинальное название: Contratiempo
Год выпуска: 2016
Жанр:  Триллер, криминал, детектив
Выпущено: Испания, Atresmedia, Atresmedia Cine, Colosé Producciones, Movistar+
Режиссер: Ориол Паоло
В ролях: Марио Касас, Хосе Коронадо, Барбара Ленни, Ана Вахенер, Франсеск Орелья, Кристиан Валенсиа, Пако Тоус, Бетси Тунес, Давид Сельвас

О фильме: Молодой бизнесмен Эдриан Дориа просыпается в закрытом изнутри номере отеля рядом с бездыханным телом своей любовницы. Его обвиняют в убийстве, но он, не считая себя виновным, решает воспользоваться услугами Вирджинии Гудман, лучшего в стране специалиста по выходу из самых сложных ситуаций. В течение одной ночи консультант и её клиент будут работать, чтобы найти разумное опровержение обвинению, и, тем самым, высвободить его из тюрьмы

Качество: BDRip (1080p)
Видео: MPEG-4 AVC, 9076 Kбит/с, 1920x804, 24 кадр/с
Аудио: Русский (AC3, 6 сh, 640 Кбит/с), (DTS, 6 сh, 1509 Кбит/с)
Размер: 8.32 ГБ
Продолжительность: 01:46:08
Перевод: Дублированный
Субтитры: Русские

Озвучивание - (Лицензия)
Сохранены оригинальные чаптеры как на Blu-Ray.
За исходный диск спасибо BLUEBIRD

Релиз:  Rip by:


[+] x264

x264 [info]: frame I:1447  Avg QP: 7.82  size:216141
x264 [info]: frame P:33791 Avg QP:10.28  size: 90103
x264 [info]: frame B:117601 Avg QP:11.56  size: 32845
x264 [info]: consecutive B-frames:  2.5%  2.6%  8.5% 21.0% 15.3% 43.6%  4.8%  0.5%  0.5%  0.1%  0.5%
x264 [info]: mb I  I16..4: 27.5% 39.4% 33.1%
x264 [info]: mb P  I16..4:  6.9% 16.8%  8.7%  P16..4: 19.3% 22.5% 10.7%  3.1%  0.3%    skip:11.8%
x264 [info]: mb B  I16..4:  1.8%  5.1%  2.1%  B16..8: 25.1% 22.3%  5.5%  direct: 8.1%  skip:29.9%  L0:44.9% L1:40.6% BI:14.5%
x264 [info]: 8x8 transform intra:53.4% inter:30.9%
x264 [info]: direct mvs  spatial:99.7% temporal:0.3%
x264 [info]: coded y,uvDC,uvAC intra: 78.9% 73.5% 68.2% inter: 24.7% 29.5% 17.7%
x264 [info]: i16 v,h,dc,p: 38% 13% 28% 21%
x264 [info]: i8 v,h,dc,ddl,ddr,vr,hd,vl,hu: 17% 15% 29%  6%  6%  7%  6%  7%  8%
x264 [info]: i4 v,h,dc,ddl,ddr,vr,hd,vl,hu: 28% 13% 29%  5%  5%  6%  5%  5%  5%
x264 [info]: i8c dc,h,v,p: 52% 23% 19%  6%
x264 [info]: Weighted P-Frames: Y:3.0% UV:1.4%
x264 [info]: ref P L0: 53.4%  5.5% 23.0%  9.1%  8.2%  0.7%  0.0%
x264 [info]: ref B L0: 78.7% 15.6%  4.6%  1.2%
x264 [info]: ref B L1: 92.7%  7.3%
x264 [info]: kb/s:9070.02



[+] Инфо-файл


Общее
Уникальный идентификатор                 : 191955483190713754232730171854417721357 (0x90694803B61F02AF86D89646966E780D)
Полное имя                               : D:ЗагрузкиContratiempo.2016.x264.BDRip.(1080p).OlLanDGroup.mkv
Формат                                   : Matroska
Версия формата                           : Version 4 / Version 2
Размер файла                             : 8,32 Гбайт
Продолжительность                        : 1 ч. 46 м.
Общий поток                              : 11,2 Мбит/сек
Название фильма                          : Невидимый гость.2016.Rip by: ollan
Дата кодирования                         : UTC 2018-09-05 05:09:47
Программа кодирования                    : mkvmerge v6.5.0 ('Isn't she lovely') built on Oct 20 2013 12:50:05
Библиотека кодирования                   : libebml v1.3.0 + libmatroska v1.4.1
Обложка                                  : Yes
Attachments                              : Cover - Contratiempo.png

Видео
Идентификатор                            : 1
Формат                                   : AVC
Формат/Информация                        : Advanced Video Codec
Профиль формата                          : High@L4.1
Настройки формата                        : CABAC / 5 Ref Frames
Параметр CABAC формата                   : Да
Параметр ReFrames формата                : 5 кадров
Идентификатор кодека                     : V_MPEG4/ISO/AVC
Продолжительность                        : 1 ч. 46 м.
Битрейт                                  : 9076 Кбит/сек
Ширина                                   : 1920 пикселей
Высота                                   : 804 пикселя
Соотношение сторон                       : 2,40:1
Режим частоты кадров                     : Постоянный
Частота кадров                           : 24,000 кадра/сек
Цветовое пространство                    : YUV
Субдискретизация насыщенности            : 4:2:0
Битовая глубина                          : 8 бит
Тип развёртки                            : Прогрессивная
Бит/(Пиксели*Кадры)                      : 0.245
Размер потока                            : 6,56 Гбайт (79%)
Библиотека кодирования                   : x264 core 146 r2538 121396c
Настройки программы                      : cabac=1 / ref=5 / deblock=1:-3:-3 / analyse=0x3:0x133 / me=umh / subme=11 / psy=1 / psy_rd=0.95:0.05 / mixed_ref=1 / me_range=64 / chroma_me=1 / trellis=2 / 8x8dct=1 / cqm=0 / deadzone=21,11 / fast_pskip=0 / chroma_qp_offset=-3 / threads=12 / lookahead_threads=3 / sliced_threads=0 / nr=0 / decimate=0 / interlaced=0 / bluray_compat=0 / constrained_intra=0 / bframes=10 / b_pyramid=2 / b_adapt=2 / b_bias=0 / direct=3 / weightb=1 / open_gop=0 / weightp=2 / keyint=240 / keyint_min=23 / scenecut=40 / intra_refresh=0 / rc_lookahead=40 / rc=2pass / mbtree=0 / bitrate=9076 / ratetol=1.0 / qcomp=0.60 / qpmin=0 / qpmax=69 / qpstep=4 / cplxblur=20.0 / qblur=0.5 / vbv_maxrate=50000 / vbv_bufsize=62500 / nal_hrd=none / filler=0 / ip_ratio=1.40 / pb_ratio=1.30 / aq=1:1.00
Default                                  : Да
Forced                                   : Нет

Аудио #1
Идентификатор                            : 2
Формат                                   : AC-3
Формат/Информация                        : Audio Coding 3
Идентификатор кодека                     : A_AC3
Продолжительность                        : 1 ч. 46 м.
Вид битрейта                             : Постоянный
Битрейт                                  : 640 Кбит/сек
Каналы                                   : 6 каналов
Расположение каналов                     : Front: L C R, Side: L R, LFE
Частота                                  : 48,0 КГц
Частота кадров                           : 31,250 кадров/сек (1536 SPF)
Битовая глубина                          : 16 бит
Метод сжатия                             : С потерями
Размер потока                            : 486 Мбайт (6%)
Заголовок                                : Дублированный (Лицензия)
Язык                                     : Russian
Service kind                             : Complete Main
Default                                  : Да
Forced                                   : Нет

Аудио #2
Идентификатор                            : 3
Формат                                   : DTS
Формат/Информация                        : Digital Theater Systems
Идентификатор кодека                     : A_DTS
Продолжительность                        : 1 ч. 46 м.
Вид битрейта                             : Постоянный
Битрейт                                  : 1509 Кбит/сек
Каналы                                   : 6 каналов
Расположение каналов                     : Front: L C R, Side: L R, LFE
Частота                                  : 48,0 КГц
Частота кадров                           : 93,750 кадра/сек (512 SPF)
Битовая глубина                          : 24 бит
Метод сжатия                             : С потерями
Размер потока                            : 1,12 Гбайт (13%)
Заголовок                                : Дублированный (Лицензия)
Язык                                     : Russian
Default                                  : Нет
Forced                                   : Нет

Текст
Идентификатор                            : 4
Формат                                   : UTF-8
Идентификатор кодека                     : S_TEXT/UTF8
Идентификатор кодека/Информация          : UTF-8 Plain Text
Заголовок                                : Full
Язык                                     : Russian
Default                                  : Нет
Forced                                   : Нет

Меню
00:00:00.000                             : es:Chapter 01
00:00:48.875                             : es:Chapter 02
00:10:25.166                             : es:Chapter 03
00:23:57.916                             : es:Chapter 04
00:38:14.250                             : es:Chapter 05
00:50:35.416                             : es:Chapter 06
01:03:43.958                             : es:Chapter 07
01:16:36.666                             : es:Chapter 08
01:29:53.083                             : es:Chapter 09




Скриншоты:
[+] Всего файлов в раздаче - 1:
Contratiempo.2016.x264.BDRip.(1080p).OlLanDGroup.mkv8.32 GB

Текущая раздача:
ДатаКомментарии    РазмерПиры
2018-09-05 U Невидимый гость / Contratiempo (2016) BDRip 1080p от OlLanDGroup | Локализованная версия | Лицензия 8.32 GB ↑ 86 ↓ 51

Показать еще раздачи по запросу невидимый:
2018-09-06 U Невидимый гость / Contratiempo (2016) BDRip от MegaPeer | Локализованная версия | Лицензия 1К744.48 MB ↑ 41 ↓ 6
2018-09-05 U Невидимый гость / Contratiempo (2016) BDRip от MegaPeer | Локализованная версия | Лицензия 1.46 GB ↑ 60 ↓ 30
2018-06-27 U Невидимый гость / Contratiempo / The Invisible Guest (2016) BDRemux 1080p от ExKinoRay | GER Transfer | iTunes 19.18 GB ↑ 50 ↓ 13
2018-06-25 U Невидимый гость / Contratiempo (2016) BDRip от MegaPeer | iTunes 747.36 MB ↑ 37 ↓ 25
2018-06-25 U Невидимый гость / Contratiempo (2016) BDRip 1080p от ExKinoRay | D, P | iTunes 14.23 GB ↑ 64 ↓ 39
2018-06-25 U Невидимый гость / Contratiempo (2016) BDRip 720p от ExKinoRay | D, P | iTunes 7.73 GB ↑ 196 ↓ 21
2018-06-25 U Невидимый гость / Contratiempo (2016) BDRip-AVC от ExKinoRay | iTunes 1.64 GB ↑ 49 ↓ 26

Отзывы
Зарегистрируйтесь чтобы добавить комментарий.
Обратная связь
Copyleft ©