↑↓Torrent.by
Поиск
Логин: Регистрация
Пароль: Восстановить пароль
Загрузка...

Хороший мальчик (2016) WEB-DLRip-AVC | iTunes

Скачать horoshiy-malchik-2016-web-dlrip-avc-itunes.torrent
U Магнитная ссылка Размер: 1.39 GB Раздают: 106 Качают: 22 Добавлен: 2018-09-06 05:34:52
Хороший мальчик (2016) WEB-DLRip-AVC | iTunes

Название: Хороший мальчик
Оригинальное название: Хороший мальчик
Год выхода: 2016
Жанр:  комедия
Режиссер: Оксана Карас
В ролях: Семен Трескунов, Константин Хабенский, Михаил Ефремов, Александр Паль, Анастасия Богатырева, Василий Буткевич, Иева Андреевайте, Ирина Денисова, Татьяна Догилева, Ирина Пегова

О фильме:
Обычная, казалось бы, неделя из жизни ничем не примечательного школьника Коли Смирнова превращается в череду невероятных происшествий: Коля влюбляется в учительницу английского, кто-то поджигает школьную пристройку с новыми компьютерами, а папа Коли заявляет семье о необходимости отказа от ночного сна, из-за чего никому в доме не удается выспаться и собраться с мыслями. Вдобавок в самого Колю влюбляется дочка директора, старшеклассница Ксюша, решившая, что это именно он поджёг школу. Остаётся всего несколько дней до субботнего праздника школы, где должны встретиться все действующие лица этого водоворота событий, и теперь хорошему мальчику Коле необходимо успеть разобраться со своей личной жизнью, расследовать поджог и наладить взаимоотношения с родителями.

Выпущено: Россия
Продолжительность: 01:35:07
Озвучивание: Оригинальное [iTunes]

Файл
Формат: MKV
Качество: WEB-DLRip-AVC
Видео: AVC/H.264, 1024x456 (2.25:1), 1712 Kbps
Аудио: 48 kHz, AC3 Dolby Digital, 3/2 (L,C,R,l,r) + LFE ch, ~384 kbps


[+] M/I
Общее
Уникальный идентификатор                 : 191144359691134760304113606072034697500 (0x8FCD1089D2491A51995A63BACFB4A11C)
Полное имя                               : D:Хороший.мальчик.2016.WEB-DLRip.NNMClub.to.mkv
Формат                                   : Matroska
Версия формата                           : Version 4 / Version 2
Размер файла                             : 1,39 Гбайт
Продолжительность                        : 1 ч. 35 м.
Общий поток                              : 2097 Кбит/сек
Название фильма                          : Хороший.мальчик.2016.WEB-DLRip.NNMClub.to
Дата кодирования                         : UTC 2016-12-22 11:41:41
Программа кодирования                    : mkvmerge v8.3.0 ('Over the Horizon') 64bit
Библиотека кодирования                   : libebml v1.3.1 + libmatroska v1.4.2

Видео
Идентификатор                            : 1
Формат                                   : AVC
Формат/Информация                        : Advanced Video Codec
Профиль формата                          : High@L4.1
Параметр CABAC формата                   : Да
Параметр ReFrames формата                : 10 кадров
Идентификатор кодека                     : V_MPEG4/ISO/AVC
Продолжительность                        : 1 ч. 35 м.
Битрейт                                  : 1712 Кбит/сек
Ширина                                   : 1024 пикселя
Высота                                   : 456 пикселей
Соотношение сторон                       : 2,25:1
Режим частоты кадров                     : Постоянный
Частота кадров                           : 24,000 кадра/сек
Цветовое пространство                    : YUV
Субдискретизация насыщенности            : 4:2:0
Битовая глубина                          : 8 бит
Тип развёртки                            : Прогрессивная
Бит/(Пиксели*Кадры)                      : 0.153
Размер потока                            : 1,14 Гбайт (82%)
Заголовок                                : Хороший.мальчик.2016.WEB-DLRip.NNMClub.to
Библиотека кодирования                   : x264 core 148 r2744+55 950084e t_mod_Custom [8-bit@all X86_64]
Настройки программы                      : cabac=1 / ref=10 / deblock=1:-2:-2 / analyse=0x3:0x113 / me=umh / subme=10 / psy=1 / fade_compensate=0.00 / psy_rd=1.00:0.00 / mixed_ref=1 / me_range=32 / chroma_me=1 / trellis=2 / 8x8dct=1 / cqm=0 / deadzone=21,11 / fast_pskip=0 / chroma_qp_offset=-2 / threads=6 / lookahead_threads=1 / sliced_threads=0 / nr=0 / decimate=1 / interlaced=0 / bluray_compat=0 / constrained_intra=0 / fgo=0 / bframes=11 / b_pyramid=2 / b_adapt=2 / b_bias=0 / direct=1 / weightb=1 / open_gop=0 / weightp=2 / keyint=240 / keyint_min=23 / scenecut=40 / intra_refresh=0 / rc_lookahead=40 / rc=crf / mbtree=0 / crf=18.7000 / qcomp=0.65 / qpmin=0:0:0 / qpmax=69:69:69 / qpstep=4 / vbv_maxrate=50000 / vbv_bufsize=62500 / crf_max=0.0 / nal_hrd=none / filler=0 / ip_ratio=1.35 / pb_ratio=1.30 / aq=3:0.90 / aq-sensitivity=10.00 / aq-factor=1.00:1.00:1.00 / aq2=0 / aq3=0 / zones=133111,136966,q=30
Язык                                     : Russian
Default                                  : Да
Forced                                   : Нет

Аудио
Идентификатор                            : 2
Формат                                   : AC-3
Формат/Информация                        : Audio Coding 3
Расширение режима                        : CM (complete main)
Параметр Endianness формата              : Big
Идентификатор кодека                     : A_AC3
Продолжительность                        : 1 ч. 35 м.
Вид битрейта                             : Постоянный
Битрейт                                  : 384 Кбит/сек
Каналы                                   : 6 каналов
Расположение каналов                     : Front: L C R, Side: L R, LFE
Частота                                  : 48,0 КГц
Частота кадров                           : 31,250 кадров/сек (1536 spf)
Метод сжатия                             : С потерями
Размер потока                            : 261 Мбайт (18%)
Заголовок                                : iTunes
Язык                                     : Russian
Default                                  : Да
Forced                                   : Да

Меню
00:00:00.000                             : en:Глава 1
00:06:15.583                             : en:Глава 2
00:13:25.874                             : en:Глава 3
00:20:43.582                             : en:Глава 4
00:28:08.873                             : en:Глава 5
00:35:55.831                             : en:Глава 6
00:42:27.747                             : en:Глава 7
00:50:15.455                             : en:Глава 8
00:57:46.288                             : en:Глава 9
01:05:03.579                             : en:Глава 10
01:11:38.829                             : en:Глава 11
01:18:45.745                             : en:Глава 12
01:25:45.453                             : en:Глава 13



Скриншоты:
[+] Всего файлов в раздаче - 1:
Хороший.мальчик.2016.WEB-DLRip.NNMClub.to.mkv1.39 GB

Текущая раздача:
ДатаКомментарии    РазмерПиры
2018-09-06 U Хороший мальчик (2016) WEB-DLRip-AVC | iTunes 1.39 GB ↑ 106 ↓ 22

Показать еще раздачи по запросу хороший:
2018-06-17 U Плохой хороший полицейский / Bad Cop: Kriminell gut [S01] (2017) HDTVRip| ViruseProject 6.90 GB ↑ 245 ↓ 98
2018-06-15 U Хороший день (2017) WEBRip-AVC 172.83 MB ↑ 205 ↓ 23
2018-01-20 U Хороший сосед / The Good Neighbor (2016) BDRip 720p | L 3.12 GB ↑ 259 ↓ 25
2018-01-20 U Хороший сосед / The Good Neighbor (2016) HDRip | L 1.34 GB ↑ 99 ↓ 21
2017-12-28 U Стэнли Милгрэм - Как хороший человек становится негодяем (2017) FB2 3.54 MB ↑ 83 ↓ 24
2017-12-22 U Плохой хороший человек (1973) DVDRip-AVC от KORSAR 1К2.13 GB ↑ 64 ↓ 22
2017-11-22 U Плохой хороший полицейский 2 / Bon Cop Bad Cop 2 (2017) BDRip 720p | L 4.01 GB ↑ 224 ↓ 69

Отзывы
Зарегистрируйтесь чтобы добавить комментарий.
Обратная связь
Copyleft ©