↑↓Torrent.by
Поиск
Логин: Регистрация
Пароль: Восстановить пароль
Загрузка...

Ты водишь! / Tag (2018) BDRip-AVC от ExKinoRay | iTunes

Скачать ty-vodish-tag-2018-bdrip-avc-ot-exkinoray-itunes.torrent
U Магнитная ссылка Размер: 1.79 GB Раздают: 45 Качают: 24 Добавлен: 2018-09-06 05:43:11
Ты водишь! / Tag (2018) BDRip-AVC от ExKinoRay | iTunes

Информация о фильме
Название: Ты водишь!
Оригинальное название: Tag
Год выхода: 2018
Жанр: Комедия
Режиссер: Джефф Томсич
В ролях: Эд Хелмс, Джереми Реннер, Джон Хэмм, Джейк Джонсон, Хэннибал Бёресс, Аннабелль Уоллис, Айла Фишер, Рашида Джонс, Лил Релл, Нора Данн

О фильме:
Каждый год в течение месяца пятеро друзей участвуют в беспощадно навороченной версии игры в кошки-мышки. Они играют в нее с первого класса, чтобы, рискуя собственной шеей, работой и отношениями, одолеть противника с победоносным криком: «Ты водишь!»
В этом году кошки-мышки приходятся на свадьбу единственного непобежденного игрока, что должно сделать из него легкую мишень. Но он знает, что они придут… и он готов.

Страна: США
Студия: Broken Road Productions, New Line Cinema
Продолжительность: 01:40:33
Перевод: Дублированный | iTunes
Субтитры: Русские (форс., полные), английские

Формат: MKV
Качество: BDRip-AVC | исх. Tag.2018.bdremuX.108Op.werecut.PROD |
Видео: MPEG-4 AVC, 1024x428 (2.40:1), 1720 kbps, 23,976 fps
Звук#1: Русский, AC3, 5.1, 48 kHz, 384 kbps | iTunes
Звук#2: Английский, AC3, 5.1, 48 kHz, 448 kbps | оригинал

Релиз:

Автор релиза:


[+] МИ
General
Unique ID : 178964296826744102661133722040803038901 (0x86A3451326DC0DC39711E6F535A896B5)
Complete name : D:Tag.2018.iTunes.BDRip.AVC.ExKinoRay.mkv
Format : Matroska
Format version : Version 2
File size : 1.79 GiB
Duration : 1 h 40 min
Overall bit rate : 2 554 kb/s
Movie name : Tag 2018 from ExKinoRay
Encoded date : UTC 2018-09-05 23:26:16
Writing application : mkvmerge v5.6.0 ('Kenya Kane') built on May 27 2012 16:44:04
Writing library : libebml v1.2.3 + libmatroska v1.3.0

Video
ID : 1
Format : AVC
Format/Info : Advanced Video Codec
Format profile : High@L4.1
Format settings, CABAC : Yes
Format settings, ReFrames : 11 frames
Codec ID : V_MPEG4/ISO/AVC
Duration : 1 h 40 min
Bit rate : 1 720 kb/s
Width : 1 024 pixels
Height : 428 pixels
Display aspect ratio : 2.40:1
Frame rate mode : Constant
Frame rate : 23.976 (23976/1000) FPS
Color space : YUV
Chroma subsampling : 4:2:0
Bit depth : 8 bits
Scan type : Progressive
Bits/(Pixel*Frame) : 0.164
Stream size : 1.17 GiB (65%)
Title : Enigma
Writing library : x264 core 152 r2851 ba24899
Encoding settings : cabac=1 / ref=11 / deblock=1:-2:-2 / analyse=0x3:0x113 / me=umh / subme=10 / psy=1 / psy_rd=1.05:0.10 / mixed_ref=1 / me_range=32 / chroma_me=1 / trellis=2 / 8x8dct=1 / cqm=0 / deadzone=21,11 / fast_pskip=0 / chroma_qp_offset=-3 / threads=12 / lookahead_threads=3 / sliced_threads=0 / nr=0 / decimate=0 / interlaced=0 / bluray_compat=0 / constrained_intra=0 / bframes=12 / b_pyramid=2 / b_adapt=2 / b_bias=0 / direct=3 / weightb=1 / open_gop=0 / weightp=2 / keyint=240 / keyint_min=23 / scenecut=40 / intra_refresh=0 / rc=2pass / mbtree=0 / bitrate=1720 / ratetol=1.0 / qcomp=0.60 / qpmin=0 / qpmax=51 / qpstep=4 / cplxblur=20.0 / qblur=0.5 / ip_ratio=1.30 / pb_ratio=1.20 / aq=2:0.90
Language : English
Default : Yes
Forced : No
Color range : Limited
Color primaries : BT.709
Transfer characteristics : BT.709
Matrix coefficients : BT.709

Audio #1
ID : 2
Format : AC-3
Format/Info : Audio Coding 3
Mode extension : CM (complete main)
Format settings, Endianness : Big
Codec ID : A_AC3
Duration : 1 h 40 min
Bit rate mode : Constant
Bit rate : 384 kb/s
Channel(s) : 6 channels
Channel positions : Front: L C R, Side: L R, LFE
Sampling rate : 48.0 kHz
Frame rate : 31.250 FPS (1536 spf)
Compression mode : Lossy
Stream size : 276 MiB (15%)
Title : iTunes
Language : Russian
Default : Yes
Forced : No

Audio #2
ID : 3
Format : AC-3
Format/Info : Audio Coding 3
Mode extension : CM (complete main)
Format settings, Endianness : Big
Codec ID : A_AC3
Duration : 1 h 40 min
Bit rate mode : Constant
Bit rate : 448 kb/s
Channel(s) : 6 channels
Channel positions : Front: L C R, Side: L R, LFE
Sampling rate : 48.0 kHz
Frame rate : 31.250 FPS (1536 spf)
Compression mode : Lossy
Stream size : 322 MiB (18%)
Language : English
Default : No
Forced : No

Text #1
ID : 4
Format : UTF-8
Codec ID : S_TEXT/UTF8
Codec ID/Info : UTF-8 Plain Text
Title : Forced
Language : Russian
Default : Yes
Forced : No

Text #2
ID : 5
Format : UTF-8
Codec ID : S_TEXT/UTF8
Codec ID/Info : UTF-8 Plain Text
Title : Full
Language : Russian
Default : No
Forced : No

Text #3
ID : 6
Format : UTF-8
Codec ID : S_TEXT/UTF8
Codec ID/Info : UTF-8 Plain Text
Title : Full
Language : English
Default : No
Forced : No

Text #4
ID : 7
Format : UTF-8
Codec ID : S_TEXT/UTF8
Codec ID/Info : UTF-8 Plain Text
Title : SDH
Language : English
Default : No
Forced : No

Text #5
ID : 8
Format : UTF-8
Codec ID : S_TEXT/UTF8
Codec ID/Info : UTF-8 Plain Text
Title : SDH Colored
Language : English
Default : No
Forced : No

Menu
00:00:00.000 : en:Chapter 01
00:09:24.230 : en:Chapter 02
00:17:04.481 : en:Chapter 03
00:28:18.863 : en:Chapter 04
00:36:56.214 : en:Chapter 05
00:46:16.398 : en:Chapter 06
00:56:28.259 : en:Chapter 07
01:06:09.465 : en:Chapter 08
01:18:02.719 : en:Chapter 09
01:26:30.101 : en:Chapter 10
01:35:55.958 : en:Chapter 11
01:40:33.652 : en:Chapter 12




Скриншоты:
[+] Всего файлов в раздаче - 1:
Tag.2018.iTunes.BDRip.AVC.ExKinoRay.mkv1.79 GB

Текущая раздача:
ДатаКомментарии    РазмерПиры
2018-09-06 U Ты водишь! / Tag (2018) BDRip-AVC от ExKinoRay | iTunes 1.79 GB ↑ 45 ↓ 24

Показать еще раздачи по запросу водишь:
2018-09-09 U Ты водишь! / Tag (2018) HDRip от Scarabey | iTunes 1.40 GB ↑ 119 ↓ 31
2018-09-09 U Ты водишь! / Tag (2018) BDRip 720p от Scarabey | iTtunes 3.99 GB ↑ 88 ↓ 46
2018-09-08 U Ты водишь! / Tag (2018) BDRip от ExKinoRay | iTunes 1.42 GB ↑ 105 ↓ 45
2018-09-07 U Ты водишь! / Tag (2018) BDRip-AVC от HELLYWOOD | iTunes 2.13 GB ↑ 70 ↓ 76
2018-09-07 U Ты водишь! / Tag (2018) BDRip 720p от HELLYWOOD | iTunes 3.69 GB ↑ 867 ↓ 286
2018-09-06 U Ты водишь! / Tag (2018) BDRip-AVC от OlLanDGroup | iTunes 1.41 GB ↑ 36 ↓ 28
2018-09-06 U Ты водишь! / Tag (2018) BDRip 1080p | iTunes, Р 9.25 GB ↑ 60 ↓ 128

Отзывы
Зарегистрируйтесь чтобы добавить комментарий.
Обратная связь
Copyleft ©