↑↓Torrent.by
Поиск
Логин: Регистрация
Пароль: Восстановить пароль
Загрузка...

Зверь / Beast (2017) BDRip | iTunes

Скачать zver-beast-2017-bdrip-itunes.torrent
U Магнитная ссылка Размер: 1.46 GB Раздают: 202 Качают: 85 Добавлен: 2018-09-07 09:07:14
Зверь / Beast (2017) BDRip | iTunes

Название: Зверь
Оригинальное название: Beast
Год выхода: 2017
Жанр: Триллер
Страна: Великобритания
Перевод: Профессиональный (многоголосый, закадровый) | iTunes
Продолжительность: 01:46:26
Режиссер: Майкл Пирс
В ролях: Джеральдин Джеймс, Джесси Бакли, Джонни Флинн, Хэтти Готобед, Чарли Палмер Ротуэлл, Эмили Тааффе, Шеннон Тарбет, Тристан Гравель, Олуэн Фуэр, Тим Вудворд и др.

О фильме: У Молл день рождения. Ей исполняется 27 лет, но праздник не делает её счастливой. Она живет с родителями на небольшом острове и буквально задыхается от непонимания и гнёта семейного круга. Молл встречает свою первую любовь в неспокойное время — по острову рыщет серийный убийца. Возникший из ниоткуда Паскаль становится для Молл воплощением свободы. С ним она впервые чувствует себя живой и избавляется от всех невидимых оков. Но счастье Молл не дает покоя её семье и жителям острова. Они подозревают Паскаля в причастности к этим зверским происшествиям. Молл приходится выбирать: быть вместе с Паскалем против всех или остаться на стороне большинства.

Файл
Формат: AVI
Качество: BDRip | Beast.2017.1080p.BluRay.REMUX.AVC.DTS-HD.MA.5.1-FGT
Видео: Xvid 73, 720x304, ~1564 kbps, 24,000 fps
Звук: русский, AC3, 5.1 ch, 48 kHz, 384 kbps | iTunes
Субтитры: нет
[+] MI
General
Полное имя                               : F:TorrentZverBDRip.avi
Формат                                   : AVI
Формат/Информация                        : Audio Video Interleave
Профиль формата                          : OpenDML
Размер файла                             : 1.46 GiB
Продолжительность                        : 1 h 46 min
Общий поток                              : 1 960 kb/s
Программа кодирования                    : XviD4PSP 6.0 / 54.27.101

Video
Идентификатор                            : 0
Формат                                   : MPEG-4 Visual
Профиль формата                          : Advanced Simple@L5
Настройки формата                        : BVOP2 / Custom Matrix
Параметр BVOP формата                    : 2
Параметр QPel формата                    : No
Параметр GMC формата                     : No warppoints
Параметр матрицы формата                 : Custom
Идентификатор кодека                     : XVID
Идентификатор кодека/Подсказка           : XviD
Продолжительность                        : 1 h 46 min
Битрейт                                  : 1 564 kb/s
Ширина                                   : 720 pixels
Высота                                   : 304 pixels
Соотношение сторон                       : 2.35:1
Частота кадров                           : 24.000 FPS
Цветовое пространство                    : YUV
Субдискретизация насыщенности            : 4:2:0
Битовая глубина                          : 8 bits
Тип развёртки                            : Progressive
Метод сжатия                             : Lossy
Бит/(Пиксели*Кадры)                      : 0.298
Размер потока                            : 1.16 GiB (80%)
Библиотека кодирования                   : XviD 73

Audio
Идентификатор                            : 1
Формат                                   : AC-3
Формат/Информация                        : Audio Coding 3
Идентификатор кодека                     : 2000
Продолжительность                        : 1 h 46 min
Вид битрейта                             : Constant
Битрейт                                  : 384 kb/s
Каналы                                   : 6 channels
Расположение каналов                     : Front: L C R, Side: L R, LFE
Частота                                  : 48.0 kHz
Частота кадров                           : 31.250 FPS (1536 SPF)
Битовая глубина                          : 16 bits
Метод сжатия                             : Lossy
Размер потока                            : 292 MiB (20%)
Выравнивание                             : Aligned on interleaves
Продолжительность промежутка             : 32  ms (0.77 video frame)




Скриншоты:
[+] Всего файлов в раздаче - 1:
ZverBDRip.avi1.46 GB

Текущая раздача:
ДатаКомментарии    РазмерПиры
2018-09-07 U Зверь / Beast (2017) BDRip | iTunes 1.46 GB ↑ 202 ↓ 85

Показать еще раздачи по запросу зверь:
2018-09-08 U Зверь / Beast (2017) BDRip от MegaPeer | iTunes 1.41 GB ↑ 107 ↓ 37
2018-09-07 U Зверь / Beast (2017) BDRip 720p | iTunes 4.36 GB ↑ 104 ↓ 37
2018-09-07 U Зверь / Beast (2017) BDRip 1080p | iTunes 8.93 GB ↑ 152 ↓ 75
2017-05-02 U Оборотень: Зверь среди нас / Werewolf: The Beast Among Us (2012) BDRip от HQCLUB | UNRATED | Лицензия 1.45 GB ↑ 186 ↓ 4
2014-03-03 U Мой ласковый и нежный зверь (1978) DVDRip 1.45 GB ↑ 107 ↓ 3
2014-01-25 U Зверь Острова Оборотней КИ / The Beast of Lycan Isle СЕ (2013) PC 330.61 MB ↑ 65 ↓ 14
2013-11-20 U Фраккия - зверь в человеческом облике / Fracchia la belva umana (1981) BDRip-AVC от MediaClub 2.60 GB ↑ 40 ↓ 39

Отзывы
Зарегистрируйтесь чтобы добавить комментарий.
Обратная связь
Copyleft ©