↑↓Torrent.by
Поиск
Логин: Регистрация
Пароль: Восстановить пароль
Загрузка...

Искатель рассвета / The Dawnseeker (2018) WEBRip | L2

Скачать iskatel-rassveta-the-dawnseeker-2018-webrip-l2.torrent
U Магнитная ссылка Размер: 1.12 GB Раздают: 85 Качают: 20 Добавлен: 2018-09-07 09:09:58
Искатель рассвета / The Dawnseeker (2018) WEBRip | L2

Название: Искатель рассвета
Оригинальное название: The Dawnseeker
Год выхода: 2018
Жанр: Фантастика
Режиссер: Джастин Прайс
В ролях: Карл Бэйли, Марк Чикойн, Джордан Мэтлок, Энджел Грэйнджер, Нэйтан Дж Кресс, Джеймс Кроак и другие
О фильме:
В 2245 году, когда Солнце грозит стереть с лица земли всё человечество, "Искатель рассвета" преследует пять наемников, которые отправляются на поиски редкого минерала под названием "звездная пыль", чтобы спасти умирающее светило. Однако после того, как их корабль обрушивается на незнакомую планету, их начинает преследовать существо, куда более развитое, чем они встречали прежде..

Страна: США, Pikchure Zero
Продолжительность: 01:22:42
Перевод: Любительский (двухголосый закадровый) | HiWay Grope

Файл
Кодек: XviD
Качество: WEBRip
Видео: 720x400, 24 fps, ~1546 kbps, 0.22 bit/pixel
Звук:
Аудио rus: AC3, 48 kHz, 6 ch, 384 Kbps
Субтитры: отсутствуют

Реклама: присутствует

Семпл

Релиз от: HiWay Grope


[+] MediaInfo:

General
Complete name                            : D:The.Dawnseeker.2018.WEBRip.HiWayGropeThe.Dawnseeker.2018.WEBRip.HiWayGrope.avi
Format                                   : AVI
Format/Info                              : Audio Video Interleave
File size                                : 1.12 GiB
Duration                                 : 1 h 22 min
Overall bit rate                         : 1 940 kb/s
Writing application                      : VirtualDubMod 1.5.10.3 (build 2550/release)
Writing library                          : VirtualDubMod build 2550/release

Video
ID                                       : 0
Format                                   : MPEG-4 Visual
Format profile                           : Simple@L5
Format settings                          : BVOP1
Format settings, BVOP                    : 1
Format settings, QPel                    : No
Format settings, GMC                     : No warppoints
Format settings, Matrix                  : Default (MPEG)
Codec ID                                 : XVID
Codec ID/Hint                            : XviD
Duration                                 : 1 h 22 min
Bit rate                                 : 1 547 kb/s
Width                                    : 720 pixels
Height                                   : 400 pixels
Display aspect ratio                     : 16:9
Frame rate                               : 24.000 FPS
Color space                              : YUV
Chroma subsampling                       : 4:2:0
Bit depth                                : 8 bits
Scan type                                : Progressive
Compression mode                         : Lossy
Bits/(Pixel*Frame)                       : 0.224
Stream size                              : 915 MiB (80%)
Writing library                          : XviD 67

Audio
ID                                       : 1
Format                                   : AC-3
Format/Info                              : Audio Coding 3
Codec ID                                 : 2000
Duration                                 : 1 h 22 min
Bit rate mode                            : Constant
Bit rate                                 : 384 kb/s
Channel(s)                               : 6 channels
Channel positions                        : Front: L C R, Side: L R, LFE
Sampling rate                            : 48.0 kHz
Frame rate                               : 31.250 FPS (1536 SPF)
Bit depth                                : 16 bits
Compression mode                         : Lossy
Stream size                              : 227 MiB (20%)
Alignment                                : Split accross interleaves
Interleave, duration                     : 42  ms (1.00 video frame)
Interleave, preload duration             : 500  ms
Service kind                             : Complete Main




Скриншоты:
[+] Всего файлов в раздаче - 1:
The.Dawnseeker.2018.WEBRip.HiWayGrope.avi1.12 GB

Текущая раздача:
ДатаКомментарии    РазмерПиры
2018-09-07 U Искатель рассвета / The Dawnseeker (2018) WEBRip | L2 1.12 GB ↑ 85 ↓ 20

Похожие раздачи по запросу - искатель:
2018-09-07 U Искатель рассвета / The Dawnseeker (2018) WEBRip 720p | L2 1.92 GB ↑ 154 ↓ 55

Отзывы
Зарегистрируйтесь чтобы добавить комментарий.
Обратная связь
Copyleft ©