↑↓Torrent.by
Поиск
Логин: Регистрация
Пароль: Восстановить пароль
Загрузка...

Офисный беспредел / Office Uprising (2018) WEB-DLRip-AVC от OlLanDGroup | iTunes

Скачать ofisnyy-bespredel-office-uprising-2018-web-dlrip-avc-ot-ollandgroup-itunes.torrent
U Магнитная ссылка Размер: 1.67 GB Раздают: 64 Качают: 30 Добавлен: 2018-09-07 10:03:12
Офисный беспредел / Office Uprising (2018) WEB-DLRip-AVC от OlLanDGroup | iTunes

Офисный беспредел / Office Uprising
«Worst. Workday. Ever»

Год выпуска: 2018
Страна: США
Производство: Mind the GAP Productions, Lydiard Films, Rumble Riot Pictures
Жанр:  Ужасы, боевик, комедия

Режиссёр: Лин Одинг
В ролях: Брентон Туэйтс, Джейн Леви, Каран Сони, Закари Ливай, Грегг Генри, Курт Фуллер, Йен Хардинг, Сэм Дэйли, Алан Ричсон, Кори Уинстон

Перевод: Дублированный | [iTunes]
Субтитры: Нет
Реклама: Отсутствует

Описание: Глава крупной корпорации, мечтая о нечеловеческой работоспособности своих менеджеров, напоил их секретным энергетическим напитком. Однако босс не ожидал побочного эффекта - подчиненные стали гиперагрессивными. И лишь один раздолбай, как обычно опоздав на работу, остался без порции энергетика. Теперь ему предстоит пережить настоящий офисный беспредел...

Качество: WEB-DLRip-AVC | iTunes Version | Office.Uprising.2018.1080p.WEB-DL.DD5.1.H264-FGT
Продолжительность: 01:24:59

Формат: MKV
Видео кодек: MPEG-4 AVC
Аудио кодек: AC3
Видео: 1024x430 (2.40:1), 25,000 fps, x264 ~1 856 kbps avg, 0.169 bit/pixel
Аудио #1: 48 kHz, AC3 Dolby Digital, 3/2 (L,C,R,l,r) + LFE ch, ~384.00 kbps avg | RUS (iTunes)
Аудио #2: 48 kHz, AC3 Dolby Digital, 2 (L,R) ch, ~192.00 kbps avg | UKR (iTunes)
Аудио #3: 48 kHz, AC3 Dolby Digital, 3/2 (L,C,R,l,r) + LFE ch, ~384.00 kbps avg | ENG

Дата премьеры (мир): 19 июня 2018
Дата премьеры (РФ): 19 июля 2018, «Вольга»
Цифровой релиз: 4 сентября 2018, «Вольга»

Релиз: Rip by:


[+] MediaInfo

Общее
Уникальный идентификатор                 : 84304764971869005345313690416761757214 (0x3F6C81D35CC9A280D5576E9E106B5E1E)
Полное имя                               : F:OlLanDGroupOffice.Uprising.2018.WEB-DLRip(AVC).OlLanDGroup.mkv
Формат                                   : Matroska
Версия формата                           : Version 4 / Version 2
Размер файла                             : 1,67 Гбайт
Продолжительность                        : 1 ч. 24 м.
Общий поток                              : 2817 Кбит/сек
Название фильма                          : Office.Uprising.2018   #TorpedoUK#
Дата кодирования                         : UTC 2018-09-06 13:52:56
Программа кодирования                    : mkvmerge v25.0.0 ('Prog Noir') 64-bit
Библиотека кодирования                   : libebml v1.3.6 + libmatroska v1.4.9

Видео
Идентификатор                            : 1
Формат                                   : AVC
Формат/Информация                        : Advanced Video Codec
Профиль формата                          : High@L4.1
Параметр CABAC формата                   : Да
Параметр ReFrames формата                : 10 кадров
Идентификатор кодека                     : V_MPEG4/ISO/AVC
Продолжительность                        : 1 ч. 24 м.
Битрейт                                  : 1856 Кбит/сек
Ширина                                   : 1024 пикселя
Высота                                   : 430 пикселей
Соотношение сторон                       : 2,40:1
Режим частоты кадров                     : Постоянный
Частота кадров                           : 25,000 кадров/сек
Цветовое пространство                    : YUV
Субдискретизация насыщенности            : 4:2:0
Битовая глубина                          : 8 бит
Тип развёртки                            : Прогрессивная
Бит/(Пиксели*Кадры)                      : 0.169
Размер потока                            : 1,10 Гбайт (66%)
Библиотека кодирования                   : x264 core 146 r2538 121396c
Настройки программы                      : cabac=1 / ref=10 / deblock=1:-2:-3 / analyse=0x3:0x113 / me=umh / subme=11 / psy=1 / psy_rd=0.97:0.05 / mixed_ref=1 / me_range=48 / chroma_me=1 / trellis=2 / 8x8dct=1 / cqm=0 / deadzone=21,11 / fast_pskip=1 / chroma_qp_offset=-3 / threads=6 / lookahead_threads=1 / sliced_threads=0 / nr=0 / decimate=1 / interlaced=0 / bluray_compat=0 / constrained_intra=0 / bframes=10 / b_pyramid=2 / b_adapt=2 / b_bias=0 / direct=3 / weightb=1 / open_gop=0 / weightp=2 / keyint=240 / keyint_min=24 / scenecut=40 / intra_refresh=0 / rc_lookahead=40 / rc=2pass / mbtree=0 / bitrate=1856 / ratetol=1.0 / qcomp=0.60 / qpmin=0 / qpmax=69 / qpstep=4 / cplxblur=20.0 / qblur=0.5 / vbv_maxrate=50000 / vbv_bufsize=62500 / nal_hrd=none / filler=0 / ip_ratio=1.40 / pb_ratio=1.30 / aq=1:1.00
Язык                                     : English
Default                                  : Да
Forced                                   : Нет

Аудио #1
Идентификатор                            : 2
Формат                                   : AC-3
Формат/Информация                        : Audio Coding 3
Расширение режима                        : CM (complete main)
Параметр Endianness формата              : Big
Идентификатор кодека                     : A_AC3
Продолжительность                        : 1 ч. 24 м.
Вид битрейта                             : Постоянный
Битрейт                                  : 384 Кбит/сек
Каналы                                   : 6 каналов
Расположение каналов                     : Front: L C R, Side: L R, LFE
Частота                                  : 48,0 КГц
Частота кадров                           : 31,250 кадров/сек (1536 spf)
Битовая глубина                          : 16 бит
Метод сжатия                             : С потерями
Размер потока                            : 233 Мбайт (14%)
Заголовок                                : [iTunes]
Язык                                     : Russian
Default                                  : Да
Forced                                   : Нет

Аудио #2
Идентификатор                            : 3
Формат                                   : AC-3
Формат/Информация                        : Audio Coding 3
Расширение режима                        : CM (complete main)
Параметр Endianness формата              : Big
Идентификатор кодека                     : A_AC3
Продолжительность                        : 1 ч. 24 м.
Вид битрейта                             : Постоянный
Битрейт                                  : 192 Кбит/сек
Каналы                                   : 2 канала
Расположение каналов                     : Front: L R
Частота                                  : 48,0 КГц
Частота кадров                           : 31,250 кадров/сек (1536 spf)
Битовая глубина                          : 16 бит
Метод сжатия                             : С потерями
Размер потока                            : 117 Мбайт (7%)
Заголовок                                : [iTunes]
Язык                                     : Ukrainian
Default                                  : Нет
Forced                                   : Нет

Аудио #3
Идентификатор                            : 4
Формат                                   : AC-3
Формат/Информация                        : Audio Coding 3
Расширение режима                        : CM (complete main)
Параметр Endianness формата              : Big
Идентификатор кодека                     : A_AC3
Продолжительность                        : 1 ч. 24 м.
Вид битрейта                             : Постоянный
Битрейт                                  : 384 Кбит/сек
Каналы                                   : 6 каналов
Расположение каналов                     : Front: L C R, Side: L R, LFE
Частота                                  : 48,0 КГц
Частота кадров                           : 31,250 кадров/сек (1536 spf)
Битовая глубина                          : 16 бит
Метод сжатия                             : С потерями
Размер потока                            : 233 Мбайт (14%)
Заголовок                                : [Original]
Язык                                     : English
Default                                  : Нет
Forced                                   : Нет

Меню
00:00:00.000                             : en:Глава 1
00:00:53.280                             : en:Глава 2
00:08:07.080                             : en:Глава 3
00:19:27.000                             : en:Глава 4
00:25:33.520                             : en:Глава 5
00:31:18.280                             : en:Глава 6
00:36:09.520                             : en:Глава 7
00:41:23.760                             : en:Глава 8
00:45:16.200                             : en:Глава 9
00:50:38.320                             : en:Глава 10
00:55:12.400                             : en:Глава 11
01:03:01.560                             : en:Глава 12
01:06:36.160                             : en:Глава 13
01:16:03.800                             : en:Глава 14



Скриншоты:
[+] Всего файлов в раздаче - 1:
Office.Uprising.2018.WEB-DLRip(AVC).OlLanDGroup.mkv1.67 GB

Текущая раздача:
ДатаКомментарии    РазмерПиры
2018-09-07 U Офисный беспредел / Office Uprising (2018) WEB-DLRip-AVC от OlLanDGroup | iTunes 1.67 GB ↑ 64 ↓ 30

Похожие раздачи по запросу - офисный:
2018-09-06 U Офисный беспредел / Office Uprising (2018) WEB-DLRip-AVC от ivanes20031987 | iTunes 1К746.10 MB ↑ 77 ↓ 18
2018-09-06 U Офисный беспредел / Office Uprising (2018) WEB-DLRip от MegaPeer | iTunes 1.46 GB ↑ 104 ↓ 22
2018-09-05 U Офисный беспредел / Office Uprising (2018) WEB-DLRip | iTunes 1.46 GB ↑ 186 ↓ 145
2018-09-05 U Офисный беспредел / Office Uprising (2018) WEB-DL 1080p | iTunes 3.27 GB ↑ 176 ↓ 161

Отзывы
Зарегистрируйтесь чтобы добавить комментарий.
Обратная связь
Copyleft ©