↑↓Torrent.by
Поиск
Логин: Регистрация
Пароль: Восстановить пароль
Загрузка...

Падре / The Padre (2018) WEBRip | L2

Скачать padre-the-2018-webrip-l2.torrent
U Магнитная ссылка Размер: 1.31 GB Раздают: 129 Качают: 23 Добавлен: 2018-09-07 12:09:59
Падре / The Padre (2018) WEBRip  | L2

Название: Падре
Оригинальное название: The Padre
Год выхода: 2018
Жанр: Драма
Режиссер: Джонатан Собол
В ролях: Тим Рот, Ник Нолти, Луис Гусман, Мари Пакуин, Хейли Эрмида, Бенжамин Петерсен и другие
О фильме:
Немолодой вор Падре скрывается от полиции на угнанной машине, не заметив, что в салоне спряталась девочка-подросток. Неудобная попутчица уговаривает Падре сделать ее своей напарницей и вместе провернуть по-настоящему крупное ограбление.

Страна: Канада, Darius Films
Продолжительность: 01:35:35
Перевод: Любительский (двухголосый закадровый) | HiWay Grope

Файл
Кодек: XviD
Качество: WEBRip  
Видео: 720x304, 23.976 fps, ~1570 kbps, 0.30 bit/pixel
Звук:
Аудио rus: AC3, 48 kHz, 6 ch, 384 Kbps
Субтитры: отсутствуют

Реклама: присутствует

Семпл

Релиз от: HiWay Grope


[+] MediaInfo:

General
Complete name                            : D:The.Padre.2018.WEBRip.HiWayGropeThe.Padre.2018.WEBRip.HiWayGrope.avi
Format                                   : AVI
Format/Info                              : Audio Video Interleave
File size                                : 1.31 GiB
Duration                                 : 1 h 35 min
Overall bit rate                         : 1 964 kb/s
Writing application                      : VirtualDubMod 1.5.10.3 (build 2550/release)
Writing library                          : VirtualDubMod build 2550/release

Video
ID                                       : 0
Format                                   : MPEG-4 Visual
Format profile                           : Simple@L5
Format settings                          : BVOP1
Format settings, BVOP                    : 1
Format settings, QPel                    : No
Format settings, GMC                     : No warppoints
Format settings, Matrix                  : Default (MPEG)
Codec ID                                 : XVID
Codec ID/Hint                            : XviD
Duration                                 : 1 h 35 min
Bit rate                                 : 1 571 kb/s
Width                                    : 720 pixels
Height                                   : 304 pixels
Display aspect ratio                     : 2.40:1
Frame rate                               : 23.976 (24000/1001) FPS
Color space                              : YUV
Chroma subsampling                       : 4:2:0
Bit depth                                : 8 bits
Scan type                                : Progressive
Compression mode                         : Lossy
Bits/(Pixel*Frame)                       : 0.299
Stream size                              : 1.05 GiB (80%)
Writing library                          : XviD 67

Audio
ID                                       : 1
Format                                   : AC-3
Format/Info                              : Audio Coding 3
Codec ID                                 : 2000
Duration                                 : 1 h 35 min
Bit rate mode                            : Constant
Bit rate                                 : 384 kb/s
Channel(s)                               : 6 channels
Channel positions                        : Front: L C R, Side: L R, LFE
Sampling rate                            : 48.0 kHz
Frame rate                               : 31.250 FPS (1536 SPF)
Bit depth                                : 16 bits
Compression mode                         : Lossy
Stream size                              : 263 MiB (20%)
Alignment                                : Split accross interleaves
Interleave, duration                     : 42  ms (1.00 video frame)
Interleave, preload duration             : 500  ms
Service kind                             : Complete Main




Скриншоты:
[+] Всего файлов в раздаче - 1:
The.Padre.2018.WEBRip.HiWayGrope.avi1.31 GB

Текущая раздача:
ДатаКомментарии    РазмерПиры
2018-09-07 U Падре / The Padre (2018) WEBRip | L2 1.31 GB ↑ 129 ↓ 23

Похожие раздачи по запросу - падре:
2018-09-14 U Падре / The Padre (2018) WEB-DLRip-AVC от ExKinoRay | P 1.53 GB ↑ 99 ↓ 10
2018-09-12 U Падре / The Padre (2018) WEB-DLRip-AVC от ivanes20031987 | P 744.53 MB ↑ 111 ↓ 35
2018-09-12 U Падре / The Padre (2018) WEB-DL 1080p | P 3.51 GB ↑ 424 ↓ 211
2018-09-12 U Падре / The Padre (2018) WEB-DLRip | P 1.46 GB ↑ 270 ↓ 72
2018-08-31 U Падре / The Padre (2018) WEB-DLRip от ExKinoRay | Sub 1.37 GB ↑ 39 ↓ 19

Отзывы
Зарегистрируйтесь чтобы добавить комментарий.
Обратная связь
Copyleft ©