↑↓Torrent.by
Поиск
Логин: Регистрация
Пароль: Восстановить пароль
Загрузка...

Мир Юрского периода 2 / Jurassic World: Fallen Kingdom (2018) BDRip 1080p | iTunes

Скачать mir-yurskogo-perioda-2-jurassic-world-fallen-kingdom-2018-bdrip-1080p-itunes.torrent
U Магнитная ссылка Размер: 14.69 GB Раздают: 176 Качают: 374 Добавлен: 2018-09-07 13:35:29
Мир Юрского периода 2 / Jurassic World: Fallen Kingdom (2018) BDRip 1080p | iTunes

Название: Мир Юрского периода 2
Оригинальное название: Jurassic World: Fallen Kingdom
Год выхода: 2018
Жанр: Фантастика, боевик, приключения
Режиссер: Хуан Антонио Байона
В ролях: Брайс Даллас Ховард, Крис Прэтт, Джефф Голдблюм, Тед Левайн, Джеймс Кромуэлл, Тоби Джонс, Б. Д. Вонг, Рейф Сполл, Даниэлла Пинеда, Джеральдин Чаплин

О фильме:
На острове Исла-Нублар, где не так давно располагался парк развлечений с динозаврами, правит бал дикая природа. Но без людей все далеко не так спокойно, как могло бы показаться. Основатели парка приняли решение построить его, несмотря на активный вулкан, расположенный в сердце острова. Вулкан пробудился и рискует потопить остров в лаве. Управляющая парка Клэр Дэринг уговаривает дрессировщика Оуэна Грэди вернуться в бывший парк и спасти динозавров от неминуемой гибели.

Страна: США, Испания
Студия: Universal Pictures
Продолжительность: 02:08:17
Перевод: Дублированный (iTunes)

Файл
Качество: BDRip 1080p | HDChina
Видео: MPEG-4 AVC, 1920x804, 14500 Кбит/с, 23.976 Кадр/c
Звук: Русский (AC3, 6 ch, 384 Кбит/с), английский (DTS, 6 ch, 1510 Кбит/с)
Субтитры: Русские (полные), английские

Релиз:


[+] MI
General
Unique ID                   : 314050317461896622453143431996995140796 (0xEC43E41B7CAC73A29E38BF54D305FCBC)
Complete name               : Jurassic.World.Fallen.Kingdom.2018.bdriP.108Op.werecut.PROD.mkv
Format                      : Matroska
Format version              : Version 4 / Version 2
File size                   : 14.7 GiB
Duration                    : 2 h 8 min
Overall bit rate            : 16.4 Mb/s
Movie name                  : Jurassic World Fallen Kingdom 2018 OT werecut PROD.
Encoded date                : UTC 2018-09-07 07:29:11
Writing application         : mkvmerge v24.0.0 ('Beyond The Pale') 64-bit
Writing library             : libebml v1.3.6 + libmatroska v1.4.9

Video
ID                          : 1
Format                      : AVC
Format/Info                 : Advanced Video Codec
Format profile              : High@L4.1
Format settings             : CABAC / 5 Ref Frames
Format settings, CABAC      : Yes
Format settings, ReFrames   : 5 frames
Codec ID                    : V_MPEG4/ISO/AVC
Duration                    : 2 h 8 min
Bit rate                    : 14.5 Mb/s
Width                       : 1 920 pixels
Height                      : 804 pixels
Display aspect ratio        : 2.40:1
Frame rate mode             : Constant
Frame rate                  : 23.976 (24000/1001) FPS
Color space                 : YUV
Chroma subsampling          : 4:2:0
Bit depth                   : 8 bits
Scan type                   : Progressive
Bits/(Pixel*Frame)          : 0.392
Stream size                 : 13.0 GiB (88%)
Title                       : Medusa @ HDChina
Writing library             : x264 core 148 r2665kMod a01e339
Encoding settings           : cabac=1 / ref=5 / deblock=1:-3:-3 / analyse=0x3:0x133 / me=umh / subme=11 / psy=1 / fade_compensate=0.00 / psy_rd=0.85:0.00 / mixed_ref=1 / me_range=48 / chroma_me=1 / trellis=2 / 8x8dct=1 / cqm=0 / deadzone=21,11 / fast_pskip=0 / chroma_qp_offset=-2 / threads=24 / lookahead_threads=4 / sliced_threads=0 / nr=0 / decimate=0 / interlaced=0 / bluray_compat=0 / constrained_intra=0 / fgo=0 / bframes=8 / b_pyramid=2 / b_adapt=2 / b_bias=0 / direct=3 / weightb=1 / open_gop=0 / weightp=2 / keyint=240 / keyint_min=24 / scenecut=40 / intra_refresh=0 / rc=2pass / mbtree=0 / bitrate=14500 / ratetol=1.0 / qcomp=0.70 / qpmin=0 / qpmax=69 / qpstep=4 / cplxblur=20.0 / qblur=0.5 / ip_ratio=1.20 / pb_ratio=1.20 / aq=3:0.80
Default                     : Yes
Forced                      : No

Audio #1
ID                          : 2
Format                      : AC-3
Format/Info                 : Audio Coding 3
Commercial name             : Dolby Digital
Codec ID                    : A_AC3
Duration                    : 2 h 8 min
Bit rate mode               : Constant
Bit rate                    : 384 kb/s
Channel(s)                  : 6 channels
Channel layout              : L R C LFE Ls Rs
Sampling rate               : 48.0 kHz
Frame rate                  : 31.250 FPS (1536 SPF)
Bit depth                   : 16 bits
Compression mode            : Lossy
Stream size                 : 352 MiB (2%)
Language                    : Russian
Service kind                : Complete Main
Default                     : Yes
Forced                      : Yes

Audio #2
ID                          : 3
Format                      : DTS
Format/Info                 : Digital Theater Systems
Codec ID                    : A_DTS
Duration                    : 2 h 8 min
Bit rate mode               : Constant
Bit rate                    : 1 509 kb/s
Channel(s)                  : 6 channels
Channel layout              : C L R Ls Rs LFE
Sampling rate               : 48.0 kHz
Frame rate                  : 93.750 FPS (512 SPF)
Bit depth                   : 24 bits
Compression mode            : Lossy
Stream size                 : 1.35 GiB (9%)
Language                    : English
Default                     : No
Forced                      : No

Text #1
ID                          : 4
Format                      : UTF-8
Codec ID                    : S_TEXT/UTF8
Codec ID/Info               : UTF-8 Plain Text
Duration                    : 1 h 56 min
Bit rate                    : 73 b/s
Count of elements           : 1724
Stream size                 : 62.7 KiB (0%)
Language                    : Russian
Default                     : No
Forced                      : No

Text #2
ID                          : 5
Format                      : UTF-8
Codec ID                    : S_TEXT/UTF8
Codec ID/Info               : UTF-8 Plain Text
Duration                    : 2 h 7 min
Bit rate                    : 48 b/s
Count of elements           : 1771
Stream size                 : 45.4 KiB (0%)
Language                    : English
Default                     : No
Forced                      : No

Menu
00:00:00.000                : en:00:00:00.000
00:07:13.224                : en:00:07:13.224
00:12:01.554                : en:00:12:01.554
00:17:17.745                : en:00:17:17.745
00:21:17.193                : en:00:21:17.193
00:28:49.811                : en:00:28:49.811
00:35:04.686                : en:00:35:04.686
00:40:51.574                : en:00:40:51.574
00:46:32.498                : en:00:46:32.498
00:52:04.997                : en:00:52:04.997
01:00:59.197                : en:01:00:59.197
01:06:50.256                : en:01:06:50.256
01:11:07.638                : en:01:11:07.638
01:17:21.095                : en:01:17:21.095
01:26:55.210                : en:01:26:55.210
01:33:01.493                : en:01:33:01.493
01:42:55.878                : en:01:42:55.878
01:50:01.553                : en:01:50:01.553
01:54:56.223                : en:01:54:56.223
01:58:37.986                : en:01:58:37.986



Скриншоты:
[+] Всего файлов в раздаче - 1:
Jurassic.World.Fallen.Kingdom.2018.bdriP.108Op.werecut.PROD.mkv14.69 GB

Текущая раздача:
ДатаКомментарии    РазмерПиры
2018-09-07 U Мир Юрского периода 2 / Jurassic World: Fallen Kingdom (2018) BDRip 1080p | iTunes 14.69 GB ↑ 176 ↓ 374

Показать еще раздачи по запросу юрского:
2018-09-17 U Мир Юрского периода 2 / Jurassic World: Fallen Kingdom (2018) BDRip 720p от Scarabey | iTunes 4.20 GB ↑ 49 ↓ 15
2018-09-14 U Мир Юрского периода 2 / Jurassic World: Fallen Kingdom (2018) BDRip-AVC от New-Team | D 2.80 GB ↑ 81 ↓ 31
2018-09-14 U Мир Юрского периода 2 / Jurassic World: Fallen Kingdom (2018) BDRip от ExKinoRay | iTunes 2.13 GB ↑ 96 ↓ 37
2018-09-14 U Мир Юрского периода 2 / Jurassic World: Fallen Kingdom (2018) BDRip-AVC от New-Team | D 1.48 GB ↑ 38 ↓ 10
2018-09-14 U Мир Юрского периода 2 / Jurassic World: Fallen Kingdom (2018) BDRip от ExKinoRay | iTunes 1.46 GB ↑ 48 ↓ 15
2018-09-13 U Мир Юрского периода 2 / Jurassic World: Fallen Kingdom (2018) BDRip-AVC от potroks | iTunes 2.85 GB ↑ 56 ↓ 23
2018-09-13 U Мир Юрского периода 2 / Jurassic World: Fallen Kingdom (2018) BDRip 1080p от qqss44 & MegaPeer | iTunes 7.51 GB ↑ 154 ↓ 112

Отзывы
Зарегистрируйтесь чтобы добавить комментарий.
Обратная связь
Copyleft ©