↑↓Torrent.by
Поиск
Логин: Регистрация
Пароль: Восстановить пароль
Загрузка...

Концерт памяти Михаила Круга - 55 (2017) WEBRip-AVC от ExKinoRay | Полная версия

Скачать koncert-pamyati-mihaila-kruga-55-2017-webrip-avc-ot-exkinoray-polnaya-versiya.torrent
U Магнитная ссылка Размер: 746.64 MB Раздают: 48 Качают: 9 Добавлен: 2018-09-07 13:35:52
Концерт памяти Михаила Круга - 55 (2017) WEBRip-AVC от ExKinoRay | Полная версия

Информация о концкрте
Оригинальное название: Концерт памяти Михаила Круга - 55
Год выхода: 2017
Жанр:  Концерт, тв-шоу, шансон

О концерте :
Михаила Круга по праву считают королем русского шансона. Его песни все знают и любят. Они заставляют думать, сострадать, радоваться, сопереживать, грустить. Михаил Круг пел о тюрьме, неволе, любви, боли и отчаянии. Его песни - сама жизнь, часть нашей истории, о которой нельзя забывать. Эти песни уже в новой аранжировке в исполнении звезд российской эстрады и шансона прозвучали в год 55-летия Михаила Круга в концертном зале "Крокус Сити Холл".

Треклист:

01. СТАНИСЛАВ ОПИТИН – «Интро»
02. АЛЕКСАНДР МАРШАЛ – «Магадан»
03. ХОР «ТУРЕЦКОГО» – «Владимирский централ»
04. ГРИГОРИЙ ЛЕПС – «Кольщик»
05. ИРИНА ДУБЦОВА – «Я так люблю тебя, когда ты далеко»
06. СЕРГЕЙ ЛЮБАВИН – «Мадам (Мой Бог)»
07. СТЕЛЛА ДЖАННИ – «Шансонье»
08. ГРУППА «ЛЕСОПОВАЛ» – «Осенний дождь»
09. СОСО ПАВЛИАШВИЛИ – «Жиган-лимон»
10. СЛАВА – «Фраер»
11. ЛЕОНИД ТЕЛЕШЕВ – «Электричка»
12. ЮРИЙ КУЗНЕЦОВ-ТАЕЖНЫЙ – «Тишина»
13. ИРИНА КРУГ – «Королева»
14. ИРИНА КРУГ – «Тебе, моя последняя любовь»
15. МИХАИЛ ШУФУТИНСКИЙ – «В городском саду (Падал снег)»
16. ВАЛЕРИЙ КУРАС – «Мамины подружки»
17. ГРУППА «БУТЫРКА» – «Купола»
18. ВЛАДИМИР БОЧАРОВ – «Бур (Чифирнуть бы ништяк)»
19. СЕРГЕЙ КУПРИК – «Тверичанка»
20. ВЕРОНИКА АНДРЕЕВА – «Водочку пьём»
21. ЭДУАРД ИЗМЕСТЬЕВ – «Ништяк, браток»
22. МИХАИЛ МУРОМОВ – «Мышка»
23. ВИКА ЦЫГАНОВА И ЮРИЙ ЦЕЙТЛИН – «Только для тебя»
24. ВИКА ЦЫГАНОВА И ИГОРЬ СЛУЦКИЙ – «Приходите в мой дом»

Выпущено: Россия, ООО МСМ
Продолжительность: 01:34:39
Язык: Русский

Файл
Формат: MKV
Качество: WEBRip-AVC
Видео: MPEG-4 AVC, 768x432, ~ 1025 Кбит/с
Аудио:  AAC-HE, 2 ch, ~ 76 Кбит/с
[+] MI
Общее
Уникальный идентификатор : 196734700264262024655516888512212023340 (0x9401B99BD2548EA080B571082CBCB82C)
Полное имя : D:MOVIESKontsert.pamyati.Mikhaila.Kruga.2017.ExKinoRay.mkv
Формат : Matroska
Версия формата : Version 4 / Version 2
Размер файла : 747 Мбайт
Продолжительность : 1 ч. 34 м.
Общий поток : 1103 Кбит/сек
Дата кодирования : UTC 2018-09-06 14:12:36
Программа кодирования : mkvmerge v15.0.0 ('Duel with the Devil') 64-bit
Библиотека кодирования : libebml v1.3.5 + libmatroska v1.4.5

Видео
Идентификатор : 1
Формат : AVC
Формат/Информация : Advanced Video Codec
Профиль формата : High@L4.1
Параметр CABAC формата : Да
Параметр RefFrames формата : 12 кадров
Идентификатор кодека : V_MPEG4/ISO/AVC
Продолжительность : 1 ч. 34 м.
Битрейт : 1025 Кбит/сек
Ширина : 768 пикселей
Высота : 432 пикселя
Соотношение сторон : 16:9
Режим частоты кадров : Постоянный
Частота кадров : 23,976 (24000/1001) кадра/сек
Цветовое пространство : YUV
Субдискретизация насыщенности : 4:2:0
Битовая глубина : 8 бит
Тип развёртки : Прогрессивная
Бит/(Пиксели*Кадры) : 0.129
Размер потока : 694 Мбайт (93%)
Библиотека кодирования : x264 core 152 r2851kMod ba24899
Настройки программы : cabac=1 / ref=12 / deblock=1:-3:-3 / analyse=0x3:0x133 / me=umh / subme=10 / psy=1 / fade_compensate=0.00 / psy_rd=1.00:0.16 / mixed_ref=1 / me_range=32 / chroma_me=1 / trellis=2 / 8x8dct=1 / cqm=0 / deadzone=21,11 / fast_pskip=0 / chroma_qp_offset=-3 / threads=6 / lookahead_threads=1 / sliced_threads=0 / nr=0 / decimate=0 / interlaced=0 / bluray_compat=0 / constrained_intra=0 / bframes=11 / b_pyramid=2 / b_adapt=2 / b_bias=0 / direct=3 / weightb=1 / open_gop=0 / weightp=2 / keyint=240 / keyint_min=23 / scenecut=40 / intra_refresh=0 / rc_lookahead=40 / rc=2pass / mbtree=1 / bitrate=1025 / ratetol=1.0 / qcomp=0.60 / qpmin=0 / qpmax=69 / qpstep=4 / cplxblur=20.0 / qblur=0.5 / ip_ratio=1.40 / aq=3:1.00
Default : Да
Forced : Нет

Аудио
Идентификатор : 2
Формат : AAC
Формат/Информация : Advanced Audio Codec
Профиль формата : HE-AAC / LC
Идентификатор кодека : A_AAC
Продолжительность : 1 ч. 34 м.
Битрейт : 76,0 Кбит/сек
Каналы : 2 канала
Расположение каналов : Front: L R
Частота : 44,1 КГц / 22,05 КГц
Частота кадров : 21,533 кадра/сек (1024 SPF)
Метод сжатия : С потерями
Задержка видео : 33 мс.
Размер потока : 51,5 Мбайт (7%)
Язык : Russian
Default : Да
Forced : Нет



Скриншоты:
[+] Всего файлов в раздаче - 1:
Kontsert.pamyati.Mikhaila.Kruga.2017.ExKinoRay.mkv746.64 MB

Текущая раздача:
ДатаКомментарии    РазмерПиры
2018-09-07 U Концерт памяти Михаила Круга - 55 (2017) WEBRip-AVC от ExKinoRay | Полная версия 746.64 MB ↑ 48 ↓ 9

Показать еще раздачи по запросу концерт:
2018-08-20 U Кино и Виктор Цой - Концерт в Алма-Ате (1989) DVDRip-AVC от ExKinoRay 746.36 MB ↑ 83 ↓ 11
2018-08-15 U Черный кофе - Концерт в Питере (2018) WEBRip 720p 1.71 GB ↑ 114 ↓ 39
2018-07-15 U Кино и Виктор Цой. Концерт в СКК "Олимпийский" (1990) SATRip-AVC от ExKinoRay 746.56 MB ↑ 50 ↓ 22
2018-06-29 U Виктор Цой - Концерт в Донецке (1990) DVDRip-AVC от ExKinoRay 746.07 MB ↑ 84 ↓ 52
2018-05-09 U Владимир Пресняков - 50-лет. Концерт в Крокусе [эфир от 06.05] (2018) HDTVRip 720p 1.98 GB ↑ 64 ↓ 21
2018-05-03 U Stand Up Концерт Тимура Каргинова [эфир от 02.05] (2018) HDTV 1080i 1.56 GB ↑ 87 ↓ 79
2018-04-30 U ДДТ - Концерт в Москве [26.04] (2018) WEBRip 1080p 2.61 GB ↑ 112 ↓ 72

Отзывы
Зарегистрируйтесь чтобы добавить комментарий.
Обратная связь
Copyleft ©