↑↓Torrent.by
Поиск
Логин: Регистрация
Пароль: Восстановить пароль
Загрузка...

Мир Юрского периода 2 / Jurassic World: Fallen Kingdom (2018) BDRip 1080p от ExKinoRay | iTunes

Скачать mir-yurskogo-perioda-2-jurassic-world-fallen-kingdom-2018-bdrip-1080p-ot-exkinoray-itunes.torrent
U Магнитная ссылка Размер: 12.32 GB Раздают: 376 Качают: 506 Добавлен: 2018-09-08 10:55:47
Мир Юрского периода 2 / Jurassic World: Fallen Kingdom (2018) BDRip 1080p от ExKinoRay | iTunes

Название: Мир Юрского периода 2
Оригинальное название: Jurassic World: Fallen Kingdom
Год выхода: 2018
Жанр: Фантастика, боевик, приключения
Режиссер: Хуан Антонио Байона
В ролях: Брайс Даллас Ховард, Крис Прэтт, Джефф Голдблюм, Тед Левайн, Джеймс Кромуэлл, Тоби Джонс, Б. Д. Вонг, Рейф Сполл, Даниэлла Пинеда, Джеральдин Чаплин

О фильме: На острове Исла-Нублар, где не так давно располагался парк развлечений с динозаврами, правит бал дикая природа. Но без людей все далеко не так спокойно, как могло бы показаться. Основатели парка приняли решение построить его, несмотря на активный вулкан, расположенный в сердце острова. Вулкан пробудился и рискует потопить остров в лаве. Управляющая парка Клэр Дэринг уговаривает дрессировщика Оуэна Грэди вернуться в бывший парк и спасти динозавров от неминуемой гибели.

Страна: США, Испания
Студия: Universal Pictures
Продолжительность: 02:08:17
Перевод: Дублированный | iTunes

Качество: BDRip 1080p
Видео: MPEG-4 AVC, 1920x804, 13.0 Mbit/s, 23.976 fps
Звук:
Аудио #01: 48 kHz, AC3, 5.1, 384 Kbps | iTunes | RUS |
Аудио #02: 48 kHz, AC3, 5.1, 640 Kbps | Оригинал |  ENG |
Субтитры: Русские (full), английские

Релиз:


[+] MI
General
Unique ID                   : 220828796387388040125969934102028704914 (0xA622144378EB76C3B345A14287C95C92)
Complete name               : D:Video111Jurassic.World.Fallen.Kingdom.2018.BDRip.1080p.ExKinoRay.mkv
Format                      : Matroska
Format version              : Version 4 / Version 2
File size                   : 12.3 GiB
Duration                    : 2 h 8 min
Overall bit rate            : 13.8 Mb/s
Movie name                  : Jurassic World Fallen Kingdom 2018 from ExKinoRay
Encoded date                : UTC 2018-09-08 03:59:52
Writing application         : mkvmerge v7.3.0 ('Nouages') 64bit built on Oct 22 2014 18:53:34
Writing library             : libebml v1.3.0 + libmatroska v1.4.1

Video
ID                          : 1
Format                      : AVC
Format/Info                 : Advanced Video Codec
Format profile              : High@L4.1
Format settings             : CABAC / 4 Ref Frames
Format settings, CABAC      : Yes
Format settings, ReFrames   : 4 frames
Codec ID                    : V_MPEG4/ISO/AVC
Duration                    : 2 h 8 min
Bit rate                    : 13.0 Mb/s
Width                       : 1 920 pixels
Height                      : 804 pixels
Display aspect ratio        : 2.40:1
Frame rate mode             : Constant
Frame rate                  : 23.976 (24000/1001) FPS
Color space                 : YUV
Chroma subsampling          : 4:2:0
Bit depth                   : 8 bits
Scan type                   : Progressive
Bits/(Pixel*Frame)          : 0.351
Stream size                 : 11.4 GiB (93%)
Writing library             : x264 core 155 r2867+74 66b5600 t_mod_Custom_2 [8-bit@all X86_64]
Encoding settings           : cabac=1 / ref=4 / deblock=1:-3:-3 / analyse=0x3:0x133 / me=umh / subme=11 / psy=1 / fade_compensate=0.00 / psy_rd=0.95:0.10 / mixed_ref=1 / me_range=48 / chroma_me=1 / trellis=2 / 8x8dct=1 / cqm=0 / deadzone=21,11 / fast_pskip=0 / chroma_qp_offset=-4 / threads=12 / lookahead_threads=2 / sliced_threads=0 / nr=0 / decimate=1 / interlaced=0 / bluray_compat=0 / constrained_intra=0 / fgo=0 / bframes=9 / b_pyramid=2 / b_adapt=2 / b_bias=0 / direct=3 / weightb=1 / open_gop=0 / weightp=2 / keyint=250 / keyint_min=23 / scenecut=40 / intra_refresh=0 / rc_lookahead=30 / rc=2pass / mbtree=0 / bitrate=13000 / ratetol=1.0 / qcomp=0.70 / qpmin=0:0:0 / qpmax=69:69:69 / qpstep=4 / cplxblur=20.0 / qblur=0.5 / vbv_maxrate=35000 / vbv_bufsize=35000 / nal_hrd=none / filler=0 / ip_ratio=1.40 / pb_ratio=1.30 / aq=3:1.00 / aq-sensitivity=10.00 / aq-factor=1.00:1.00:1.00 / aq2=0 / aq3=2:[0.50:0.50]:[0.50:0.50]:[0.50:0.50]:[0.50:0.50] / aq3-sensitivity=10.00 / aq3-factor=[1.00:1.00]:[1.00:1.00]:[1.00:1.00] / aq3-boundary=192:64:24
Language                    : English
Default                     : Yes
Forced                      : No

Audio #1
ID                          : 2
Format                      : AC-3
Format/Info                 : Audio Coding 3
Commercial name             : Dolby Digital
Codec ID                    : A_AC3
Duration                    : 2 h 8 min
Bit rate mode               : Constant
Bit rate                    : 384 kb/s
Channel(s)                  : 6 channels
Channel layout              : L R C LFE Ls Rs
Sampling rate               : 48.0 kHz
Frame rate                  : 31.250 FPS (1536 SPF)
Bit depth                   : 16 bits
Compression mode            : Lossy
Stream size                 : 352 MiB (3%)
Title                       : iTunes
Language                    : Russian
Service kind                : Complete Main
Default                     : Yes
Forced                      : Yes

Audio #2
ID                          : 3
Format                      : AC-3
Format/Info                 : Audio Coding 3
Commercial name             : Dolby Digital
Codec ID                    : A_AC3
Duration                    : 2 h 8 min
Bit rate mode               : Constant
Bit rate                    : 640 kb/s
Channel(s)                  : 6 channels
Channel layout              : L R C LFE Ls Rs
Sampling rate               : 48.0 kHz
Frame rate                  : 31.250 FPS (1536 SPF)
Bit depth                   : 16 bits
Compression mode            : Lossy
Stream size                 : 587 MiB (5%)
Title                       : Original
Language                    : English
Service kind                : Complete Main
Default                     : No
Forced                      : No

Text #1
ID                          : 4
Format                      : UTF-8
Codec ID                    : S_TEXT/UTF8
Codec ID/Info               : UTF-8 Plain Text
Duration                    : 1 h 56 min
Bit rate                    : 73 b/s
Count of elements           : 1724
Stream size                 : 62.7 KiB (0%)
Title                       : Full
Language                    : Russian
Default                     : No
Forced                      : No

Text #2
ID                          : 5
Format                      : UTF-8
Codec ID                    : S_TEXT/UTF8
Codec ID/Info               : UTF-8 Plain Text
Duration                    : 2 h 7 min
Bit rate                    : 48 b/s
Count of elements           : 1771
Stream size                 : 45.4 KiB (0%)
Title                       : SDH
Language                    : English
Default                     : No
Forced                      : No

Menu
00:00:00.000                : en:00:00:00.000
00:07:13.224                : en:00:07:13.224
00:12:01.554                : en:00:12:01.554
00:17:17.745                : en:00:17:17.745
00:21:17.193                : en:00:21:17.193
00:28:49.811                : en:00:28:49.811
00:35:04.686                : en:00:35:04.686
00:40:51.574                : en:00:40:51.574
00:46:32.498                : en:00:46:32.498
00:52:04.997                : en:00:52:04.997
01:00:59.197                : en:01:00:59.197
01:06:50.256                : en:01:06:50.256
01:11:07.638                : en:01:11:07.638
01:17:21.095                : en:01:17:21.095
01:26:55.210                : en:01:26:55.210
01:33:01.493                : en:01:33:01.493
01:42:55.878                : en:01:42:55.878
01:50:01.553                : en:01:50:01.553
01:54:56.223                : en:01:54:56.223
01:58:37.986                : en:01:58:37.986



Скриншоты:
[+] Всего файлов в раздаче - 1:
Jurassic.World.Fallen.Kingdom.2018.BDRip.1080p.ExKinoRay.mkv12.32 GB

Текущая раздача:
ДатаКомментарии    РазмерПиры
2018-09-08 U Мир Юрского периода 2 / Jurassic World: Fallen Kingdom (2018) BDRip 1080p от ExKinoRay | iTunes 12.32 GB ↑ 376 ↓ 506

Показать еще раздачи по запросу юрского:
2018-09-17 U Мир Юрского периода 2 / Jurassic World: Fallen Kingdom (2018) BDRip 720p от Scarabey | iTunes 4.20 GB ↑ 49 ↓ 15
2018-09-14 U Мир Юрского периода 2 / Jurassic World: Fallen Kingdom (2018) BDRip-AVC от New-Team | D 2.80 GB ↑ 81 ↓ 31
2018-09-14 U Мир Юрского периода 2 / Jurassic World: Fallen Kingdom (2018) BDRip от ExKinoRay | iTunes 2.13 GB ↑ 97 ↓ 37
2018-09-14 U Мир Юрского периода 2 / Jurassic World: Fallen Kingdom (2018) BDRip-AVC от New-Team | D 1.48 GB ↑ 38 ↓ 10
2018-09-14 U Мир Юрского периода 2 / Jurassic World: Fallen Kingdom (2018) BDRip от ExKinoRay | iTunes 1.46 GB ↑ 49 ↓ 15
2018-09-13 U Мир Юрского периода 2 / Jurassic World: Fallen Kingdom (2018) BDRip-AVC от potroks | iTunes 2.85 GB ↑ 57 ↓ 23
2018-09-13 U Мир Юрского периода 2 / Jurassic World: Fallen Kingdom (2018) BDRip 1080p от qqss44 & MegaPeer | iTunes 7.51 GB ↑ 154 ↓ 112

Отзывы
Зарегистрируйтесь чтобы добавить комментарий.
Обратная связь
Copyleft ©