↑↓Torrent.by
Поиск
Логин: Регистрация
Пароль: Восстановить пароль
Загрузка...

Траншея 11 / Trench 11 (2017) WEBRip 720p | L1

Скачать transheya-11-trench-2017-webrip-720p-l1.torrent
U Магнитная ссылка Размер: 824.70 MB Раздают: 199 Качают: 38 Добавлен: 2018-09-08 10:56:04
Траншея 11 / Trench 11 (2017) WEBRip 720p | L1

Название: Траншея 11
Оригинальное название: Trench 11
Год выхода: 2017
Жанр: Ужасы, триллер, военный
Режиссер: Лео Шерман
В ролях:  Россиф Сазерленд, Карин Ванасс, Роб Арчер, Шон Бенсон, Чарли Каррик, Тед Атертон, Адам Хертиг, Роберт Штадлобер, Люк Хамфри, Джон Б. Лоу

О фильме:
Идут последние дни Первой мировой войны. Канадскому шахтеру приказано провести команду союзников к немецкой базе, скрытой глубоко ниже любых траншей. Немцы потеряли контроль над опасным биологическим оружием, которое превращает людей в сумасшедших убийц. Отряд оказываются в ловушке. Не так страшен Западный фронт, как то, что находится под ним.

Страна: Канада
Продолжительность: 01:31:00
Перевод: Любительский (одноголосый) Хихикающий доктор

Файл
Формат: MKV
Качество: WEBRip 720p
Видео: 1280x576, 23,976 fps, High@L3.1 ~1069 kbps avg, 0.081 bit/pixel
Звук: 44.100 kHz, MPEG Layer 3, 2 ch, ~192.00 kbps avg

Трейлер

Небольшая реклама в титрах


[+] MI

Complete name                            : C:Trench.11.2017.Xixidok.mkv
Format                                   : Matroska
Format version                           : Version 4 / Version 2
File size                                : 825 MiB
Duration                                 : 1 h 31 min
Overall bit rate                         : 1 260 kb/s
Encoded date                             : UTC 2018-09-07 12:00:32
Writing application                      : mkvmerge v8.3.0 ('Over the Horizon') 64bit
Writing library                          : libebml v1.3.1 + libmatroska v1.4.2

Video
ID                                       : 1
Format                                   : AVC
Format/Info                              : Advanced Video Codec
Format profile                           : High@L3.1
Format settings                          : CABAC / 5 Ref Frames
Format settings, CABAC                   : Yes
Format settings, RefFrames               : 5 frames
Codec ID                                 : V_MPEG4/ISO/AVC
Duration                                 : 1 h 31 min
Bit rate                                 : 1 069 kb/s
Width                                    : 1 280 pixels
Height                                   : 576 pixels
Display aspect ratio                     : 2.2:1
Original display aspect ratio            : 2.2:1
Frame rate mode                          : Constant
Frame rate                               : 23.976 (24000/1001) FPS
Color space                              : YUV
Chroma subsampling                       : 4:2:0
Bit depth                                : 8 bits
Scan type                                : Progressive
Bits/(Pixel*Frame)                       : 0.060
Stream size                              : 698 MiB (85%)
Default                                  : Yes
Forced                                   : No
Color range                              : Limited
Color primaries                          : BT.709
Transfer characteristics                 : BT.709
Matrix coefficients                      : BT.709

Audio
ID                                       : 2
Format                                   : MPEG Audio
Format version                           : Version 1
Format profile                           : Layer 3
Codec ID                                 : A_MPEG/L3
Codec ID/Hint                            : MP3
Duration                                 : 1 h 31 min
Bit rate mode                            : Constant
Bit rate                                 : 192 kb/s
Channel(s)                               : 2 channels
Sampling rate                            : 44.1 kHz
Frame rate                               : 38.281 FPS (1152 SPF)
Compression mode                         : Lossy
Stream size                              : 126 MiB (15%)
Default                                  : Yes
Forced                                   : No




Скриншоты:
[+] Всего файлов в раздаче - 1:
Trench.11.2017.Xixidok.mkv824.70 MB

Отзывы
Зарегистрируйтесь чтобы добавить комментарий.
Обратная связь
Copyleft ©