↑↓Torrent.by
Поиск
Логин: Регистрация
Пароль: Восстановить пароль
Загрузка...

Мара. Пожиратель снов / Mara (2018) WEB-DL 1080p | BadBajo

Скачать mara-pozhiratel-snov-2018-web-dl-1080p-badbajo.torrent
U Магнитная ссылка Размер: 3.03 GB Раздают: 135 Качают: 59 Добавлен: 2018-09-08 10:59:09
Мара. Пожиратель снов / Mara (2018) WEB-DL 1080p | BadBajo

Название: Мара. Пожиратель снов
Оригинальное название: Mara
Год выхода: 2018
Жанр: Ужасы, триллер, криминал
Режиссер: Клайв Тонг
В ролях: Ольга Куриленко, Хавьер Ботет, Митч Икинс, Лэнс Э. Николс, Рози Феллнер, Дэнди Баррет, Крэйг Конуэй, Мелисса Болона, Кэти МакГроу

О фильме:
Кейт Фуллер приписана к расследованию убийства мужчины, которого, как считает полиция, задушила во сне собственная жена. В качестве свидетеля проходит восьмилетняя дочь убитого, Софи. Все дальше углубляясь в это дело, Кейт узнает о существовании древнего демона, убивающего своих жертв во сне. Она испытывает те же чудовищные симптомы и кошмары, поэтому сон становится для неё опасным.

Страна: Великобритания, США
Студия: MooMoon River Studios,Grodnik /Aloe Productions, Aloe Entertainmentn
Продолжительность: 01:39:03
Перевод: Любительский одноголосый | А.Важенин (BadBajo)

Файл
Кодек: AVC
Качество: WEB-DL 1080p | AMZN
Видео: MPEG-4 AVC, 1920x800, 3612 Kбит/с, 23.976 кадр/с
Звук:
Аудио #1: Русский ( АС3, 6ch, 384 Кбит/с, 48.0 KHz) Любительский(одноголосый, закадровый) А.Важенин (BadBajo)

Аудио #2: Английский ( АС3, 6ch, 384 Кбит/с, 48.0 KHz)
Субтитры: английские


[+] MediaInfo
Mara.2018.1080p.AMZN.WEB-DL.DDP5.1.H.264-NTG
General
Unique ID                      : 212640881313330154646908372417781844496 (0x9FF924E1EAD017DF81E5CC767A3E4A10)
Complete name                  : Mara.2018.WEB-DL.1080p.mkv
Format                         : Matroska
Format version                 : Version 4 / Version 2
File size                      : 3.03 GiB
Duration                       : 1 h 39 min
Overall bit rate mode          : Variable
Overall bit rate               : 4 382 kb/s
Encoded date                   : UTC 2018-09-07 16:46:32
Writing application            : mkvmerge v7.1.0 ('Good Love') 64bit built on Jul 27 2014 13:06:55
Writing library                : libebml v1.3.0 + libmatroska v1.4.1

Video
ID                             : 1
Format                         : AVC
Format/Info                    : Advanced Video Codec
Format profile                 : High@L4
Format settings                : CABAC / 4 Ref Frames
Format settings, CABAC         : Yes
Format settings, ReFrames      : 4 frames
Codec ID                       : V_MPEG4/ISO/AVC
Duration                       : 1 h 39 min
Bit rate mode                  : Variable
Bit rate                       : 3 612 kb/s
Maximum bit rate               : 15.0 Mb/s
Width                          : 1 920 pixels
Height                         : 800 pixels
Display aspect ratio           : 2.40:1
Frame rate mode                : Constant
Frame rate                     : 23.976 (24000/1001) FPS
Color space                    : YUV
Chroma subsampling             : 4:2:0
Bit depth                      : 8 bits
Scan type                      : Progressive
Bits/(Pixel*Frame)             : 0.098
Stream size                    : 2.50 GiB (82%)
Language                       : English
Default                        : Yes
Forced                         : No
Color range                    : Limited
Color primaries                : BT.709
Transfer characteristics       : BT.709
Matrix coefficients            : BT.709

Audio #1
ID                             : 2
Format                         : AC-3
Format/Info                    : Audio Coding 3
Commercial name                : Dolby Digital
Codec ID                       : A_AC3
Duration                       : 1 h 39 min
Bit rate mode                  : Constant
Bit rate                       : 384 kb/s
Channel(s)                     : 6 channels
Channel layout                 : L R C LFE Ls Rs
Sampling rate                  : 48.0 kHz
Frame rate                     : 31.250 FPS (1536 SPF)
Bit depth                      : 16 bits
Compression mode               : Lossy
Stream size                    : 272 MiB (9%)
Title                          : BadBajo
Language                       : Russian
Service kind                   : Complete Main
Default                        : Yes
Forced                         : No

Audio #2
ID                             : 3
Format                         : AC-3
Format/Info                    : Audio Coding 3
Commercial name                : Dolby Digital
Codec ID                       : A_AC3
Duration                       : 1 h 39 min
Bit rate mode                  : Constant
Bit rate                       : 384 kb/s
Channel(s)                     : 6 channels
Channel layout                 : L R C LFE Ls Rs
Sampling rate                  : 48.0 kHz
Frame rate                     : 31.250 FPS (1536 SPF)
Bit depth                      : 16 bits
Compression mode               : Lossy
Stream size                    : 272 MiB (9%)
Language                       : English
Service kind                   : Complete Main
Default                        : No
Forced                         : No

Text #1
ID                             : 4
Format                         : UTF-8
Codec ID                       : S_TEXT/UTF8
Codec ID/Info                  : UTF-8 Plain Text
Duration                       : 1 h 34 min
Bit rate                       : 36 b/s
Count of elements              : 763
Stream size                    : 25.0 KiB (0%)
Language                       : English
Default                        : No
Forced                         : No

Text #2
ID                             : 5
Format                         : UTF-8
Codec ID                       : S_TEXT/UTF8
Codec ID/Info                  : UTF-8 Plain Text
Duration                       : 1 h 33 min
Bit rate                       : 40 b/s
Count of elements              : 963
Stream size                    : 28.1 KiB (0%)
Title                          : SDH
Language                       : English
Default                        : No
Forced                         : No

Menu
00:00:00.000                   : en:1
00:05:39.000                   : en:2
00:13:02.000                   : en:3
00:20:49.000                   : en:4
00:29:22.000                   : en:5
00:38:58.000                   : en:6
00:47:22.000                   : en:7
00:55:44.000                   : en:8
01:03:26.000                   : en:9
01:11:03.000                   : en:10
01:22:00.000                   : en:11
01:29:18.000                   : en:12
01:35:44.000                   : en:13



Скриншоты:
[+] Всего файлов в раздаче - 1:
Mara.2018.WEB-DL.1080p.mkv3.03 GB

Текущая раздача:
ДатаКомментарии    РазмерПиры
2018-09-08 U Мара. Пожиратель снов / Mara (2018) WEB-DL 1080p | BadBajo 3.03 GB ↑ 135 ↓ 59

Показать еще раздачи по запросу мара:
Вчера U Мара. Пожиратель снов / Mara (2018) WEB-DL 720p | HDrezka Studio 3.19 GB ↑ 67 ↓ 27
2018-09-08 U Мара. Пожиратель снов / Mara (2018) WEB-DLRip от MegaPeer | BadBajo 1.45 GB ↑ 107 ↓ 50
2018-09-08 U Мара. Пожиратель снов / Mara (2018) WEB-DLRip-AVC от ivanes20031987 | BadBajo 745.06 MB ↑ 112 ↓ 33
2018-09-08 U Мара. Пожиратель снов / Mara (2018) WEB-DLRip-AVC от ExKinoRay | BadBajo 1.65 GB ↑ 100 ↓ 42
2018-09-08 U Мара. Пожиратель снов / Mara (2018) WEB-DLRip 720p | BadBajo 3.32 GB ↑ 286 ↓ 64
2016-03-16 U Мара и Носитель Огня / Mara und der Feuerbringer (2015) BDRip 720p | L 4.45 GB ↑ 95 ↓ 60
2016-03-16 U Мара и Носитель Огня / Mara und der Feuerbringer (2015) HDRip | L 1.45 GB ↑ 351 ↓ 104

Отзывы
Зарегистрируйтесь чтобы добавить комментарий.
Обратная связь
Copyleft ©