↑↓Torrent.by
Поиск
Логин: Регистрация
Пароль: Восстановить пароль
Загрузка...

Следующее поколение / Next Gen (2018) WEBRip 1080p | Sub

Скачать sleduyuschee-pokolenie-next-gen-2018-webrip-1080p-sub.torrent
U Магнитная ссылка Размер: 4.27 GB Раздают: 156 Качают: 65 Добавлен: 2018-09-08 10:59:14
Следующее поколение / Next Gen (2018) WEBRip 1080p | Sub

Название: Следующее поколение
Оригинальное название: Next Gen
Год выхода: 2018
Жанр: Мультфильм, комедия, приключения, фантастика
Режиссер: Кевин Р. Адамс, Джо Ксандер
В ролях: Jason Sudeikis, Michael Peña, David Cross, Charlyne Yi, Constance Wu, Kiana Ledé, John Krasinski, Anna Akana, Fred Tatasciore, Jet Jurgensmeyer, Betsy Sodaro, ...

О фильме:
Недалекое будущее. Девушке-подростку Су приходится расти в изоляции: папы постоянно нет дома, а мама больше интересуется новыми технологиями, чем собственной дочерью. Однажды она приводит Су на выставку последних достижений науки и техники, где та случайно помогает сбежать из лаборатории роботу последнего поколения. Наконец-то у подростка появляется настоящий друг.

Страна: Китай, Канада
Студия: NetFlix, Baozou Manhua, Tangent Animation
Продолжительность: 01:45:55
Перевод: СУБТИТРЫ

Файл
Кодек: AVC
Качество: WEBRip 1080p | Sub
Видео: MPEG-4 AVC, 1920x1080, 5360 Kбит/с, 24.000 кадр/с
Звук: Аудио #1: Английский ( АС3, 6ch, 448 Кбит/с, 48.0 KHz)
Субтитры: Русские, английские, немецкие, французские, итальянские, испанские, японские, китайские, финские, турецкие


[+] MediaInfo
Next.Gen.2018.1080p.NF.WEBRip.DDP5.1.x264-NTG
General
Unique ID                      : 230671458669438791742043894068862491637 (0xAD89B4FB1D2EC93089B756EE98839BF5)
Complete name                  : Next.Gen.2018.NF.WEB-DL.1080p.mkv
Format                         : Matroska
Format version                 : Version 4 / Version 2
File size                      : 4.27 GiB
Duration                       : 1 h 45 min
Overall bit rate mode          : Variable
Overall bit rate               : 5 766 kb/s
Encoded date                   : UTC 2018-09-07 11:50:03
Writing application            : mkvmerge v7.1.0 ('Good Love') 64bit built on Jul 27 2014 13:06:55
Writing library                : libebml v1.3.0 + libmatroska v1.4.1

Video
ID                             : 1
Format                         : AVC
Format/Info                    : Advanced Video Codec
Format profile                 : Main@L4
Format settings                : CABAC / 3 Ref Frames
Format settings, CABAC         : Yes
Format settings, ReFrames      : 3 frames
Codec ID                       : V_MPEG4/ISO/AVC
Duration                       : 1 h 45 min
Bit rate mode                  : Variable
Bit rate                       : 5 360 kb/s
Maximum bit rate               : 8 040 kb/s
Width                          : 1 920 pixels
Height                         : 1 080 pixels
Display aspect ratio           : 16:9
Frame rate mode                : Constant
Frame rate                     : 24.000 FPS
Color space                    : YUV
Chroma subsampling             : 4:2:0
Bit depth                      : 8 bits
Scan type                      : Progressive
Bits/(Pixel*Frame)             : 0.108
Stream size                    : 3.93 GiB (92%)
Writing library                : x264 core 148 r2715 7e75228
Encoding settings              : cabac=1 / ref=3 / deblock=1:0:0 / analyse=0x1:0x111 / me=umh / subme=10 / psy=1 / psy_rd=1.00:0.00 / mixed_ref=1 / me_range=24 / chroma_me=1 / trellis=2 / 8x8dct=0 / cqm=0 / deadzone=21,11 / fast_pskip=1 / chroma_qp_offset=-2 / threads=8 / lookahead_threads=1 / sliced_threads=0 / nr=0 / decimate=1 / interlaced=0 / bluray_compat=0 / stitchable=1 / constrained_intra=0 / bframes=2 / b_pyramid=0 / b_adapt=2 / b_bias=0 / direct=3 / weightb=1 / open_gop=0 / weightp=2 / keyint=48 / keyint_min=25 / scenecut=0 / intra_refresh=0 / rc_lookahead=48 / rc=2pass / mbtree=1 / bitrate=5360 / ratetol=1.0 / qcomp=0.50 / qpmin=6 / qpmax=51 / qpstep=4 / cplxblur=20.0 / qblur=0.5 / vbv_maxrate=8040 / vbv_bufsize=10720 / nal_hrd=vbr / filler=0 / ip_ratio=1.40 / aq=1:1.00
Language                       : Chinese
Default                        : Yes
Forced                         : No

Audio
ID                             : 2
Format                         : AC-3
Format/Info                    : Audio Coding 3
Commercial name                : Dolby Digital
Codec ID                       : A_AC3
Duration                       : 1 h 45 min
Bit rate mode                  : Constant
Bit rate                       : 448 kb/s
Channel(s)                     : 6 channels
Channel layout                 : L R C LFE Ls Rs
Sampling rate                  : 48.0 kHz
Frame rate                     : 31.250 FPS (1536 SPF)
Bit depth                      : 16 bits
Compression mode               : Lossy
Stream size                    : 339 MiB (8%)
Language                       : English
Service kind                   : Complete Main
Default                        : Yes
Forced                         : No

Text #1
ID                             : 3
Format                         : UTF-8
Codec ID                       : S_TEXT/UTF8
Codec ID/Info                  : UTF-8 Plain Text
Duration                       : 1 h 37 min
Bit rate                       : 64 b/s
Count of elements              : 1011
Stream size                    : 46.1 KiB (0%)
Language                       : Russian
Default                        : Yes
Forced                         : No

Text #2
ID                             : 4
Format                         : UTF-8
Codec ID                       : S_TEXT/UTF8
Codec ID/Info                  : UTF-8 Plain Text
Duration                       : 1 h 39 min
Bit rate                       : 65 b/s
Count of elements              : 1540
Stream size                    : 47.9 KiB (0%)
Title                          : SDH
Language                       : English
Default                        : No
Forced                         : No

Text #3
ID                             : 5
Format                         : UTF-8
Codec ID                       : S_TEXT/UTF8
Codec ID/Info                  : UTF-8 Plain Text
Duration                       : 1 h 37 min
Bit rate                       : 40 b/s
Count of elements              : 1010
Stream size                    : 28.6 KiB (0%)
Language                       : German
Default                        : No
Forced                         : No

Text #4
ID                             : 6
Format                         : UTF-8
Codec ID                       : S_TEXT/UTF8
Codec ID/Info                  : UTF-8 Plain Text
Duration                       : 1 h 37 min
Bit rate                       : 45 b/s
Count of elements              : 1014
Stream size                    : 32.6 KiB (0%)
Language                       : French
Default                        : No
Forced                         : No

Text #5
ID                             : 7
Format                         : UTF-8
Codec ID                       : S_TEXT/UTF8
Codec ID/Info                  : UTF-8 Plain Text
Duration                       : 1 h 37 min
Bit rate                       : 38 b/s
Count of elements              : 953
Stream size                    : 27.4 KiB (0%)
Language                       : Italian
Default                        : No
Forced                         : No

Text #6
ID                             : 8
Format                         : UTF-8
Codec ID                       : S_TEXT/UTF8
Codec ID/Info                  : UTF-8 Plain Text
Duration                       : 1 h 37 min
Bit rate                       : 44 b/s
Count of elements              : 1002
Stream size                    : 31.8 KiB (0%)
Title                          : European
Language                       : Spanish
Default                        : No
Forced                         : No

Text #7
ID                             : 9
Format                         : UTF-8
Codec ID                       : S_TEXT/UTF8
Codec ID/Info                  : UTF-8 Plain Text
Duration                       : 1 h 37 min
Bit rate                       : 41 b/s
Count of elements              : 1147
Stream size                    : 29.5 KiB (0%)
Language                       : Japanese
Default                        : No
Forced                         : No

Text #8
ID                             : 10
Format                         : UTF-8
Codec ID                       : S_TEXT/UTF8
Codec ID/Info                  : UTF-8 Plain Text
Duration                       : 1 h 37 min
Bit rate                       : 37 b/s
Count of elements              : 1012
Stream size                    : 26.7 KiB (0%)
Title                          : Simplified
Language                       : Chinese
Default                        : No
Forced                         : No

Text #9
ID                             : 11
Format                         : UTF-8
Codec ID                       : S_TEXT/UTF8
Codec ID/Info                  : UTF-8 Plain Text
Duration                       : 1 h 37 min
Bit rate                       : 44 b/s
Count of elements              : 1031
Stream size                    : 31.8 KiB (0%)
Title                          : Traditional
Language                       : Chinese
Default                        : No
Forced                         : No

Text #10
ID                             : 12
Format                         : UTF-8
Codec ID                       : S_TEXT/UTF8
Codec ID/Info                  : UTF-8 Plain Text
Duration                       : 1 h 37 min
Bit rate                       : 41 b/s
Count of elements              : 999
Stream size                    : 29.3 KiB (0%)
Language                       : Finnish
Default                        : No
Forced                         : No

Text #11
ID                             : 13
Format                         : UTF-8
Codec ID                       : S_TEXT/UTF8
Codec ID/Info                  : UTF-8 Plain Text
Duration                       : 1 h 37 min
Bit rate                       : 46 b/s
Count of elements              : 1029
Stream size                    : 33.0 KiB (0%)
Language                       : Turkish
Default                        : No
Forced                         : No



Скриншоты:
[+] Всего файлов в раздаче - 1:
Next.Gen.2018.NF.WEB-DL.1080p.mkv4.27 GB

Текущая раздача:
ДатаКомментарии    РазмерПиры
2018-09-08 U Следующее поколение / Next Gen (2018) WEBRip 1080p | Sub 4.27 GB ↑ 156 ↓ 65

Показать еще раздачи по запросу следующее:
2018-09-20 U Следующее поколение / Next Gen (2018) WEBRip от Portablius | D 745.38 MB ↑ 50 ↓ 8
2018-09-19 U Следующее поколение / Next Gen (2018) WEB-DLRip-AVC от ExKinoRay | D 1.89 GB ↑ 47 ↓ 13
2018-09-19 U Следующее поколение / Next Gen (2018) WEBRip 720p | D, L1 3.81 GB ↑ 37 ↓ 10
2018-09-19 U Следующее поколение / Next Gen (2018) WEB-DLRip от MegaPeer | D 1.46 GB ↑ 87 ↓ 18
2018-09-17 U Следующее поколение / Next Gen (2018) WEB-DLRip от MegaPeer | D 1.46 GB ↑ 109 ↓ 34
2018-09-15 U Следующее поколение / Next Gen (2018) WEB-DLRip 1080p | D 4.47 GB ↑ 822 ↓ 425
2017-07-22 U На следующее утро / The Morning After (2015) HDRip | L 1.34 GB ↑ 69 ↓ 38

Отзывы
Зарегистрируйтесь чтобы добавить комментарий.
Обратная связь
Copyleft ©