↑↓Torrent.by
Поиск
Логин: Регистрация
Пароль: Восстановить пароль
Загрузка...

Роза и чертополох [01-02 из 02] (2018) WEB-DLRip от GeneralFilm

Скачать roza-i-chertopoloh-01-02-iz-2018-web-dlrip-ot-generalfilm.torrent
U Магнитная ссылка Размер: 1.09 GB Раздают: 122 Качают: 53 Добавлен: 2018-09-08 11:34:06
Роза и чертополох [01-02 из 02] (2018) WEB-DLRip от GeneralFilm

Оригинальное название: Роза и чертополох
Год выпуска: 2018
Жанр:  триллер
Режиссер: Ашот Кещян
В ролях: Евгения Лоза, Илья Оболонков, Алексей Анищенко, Екатерина Молоховская, Александра Солянкина, Александр Кульков

О фильме:
После измены мужа Ольга готова бросить Михаила. Но он попадает в аварию, и Ольга соглашается дать их отношениям последний шанс.Вскоре кто-то начинает ее тайно преследовать. Однако все вокруг считают подозрения Ольги навязчивым бредом. Главный кошмар Ольги: сойти с ума, как и ее погибшая мать, становится реальностью.Пытаясь докопаться до правды, Ольга понимает, что ее пытаются убить. И спасти ее может лишь тот, кто ей поверит.

Страна: Россия
Студия: «Гамма Продакшн»
Продолжительность: 2 x ~ 00:48:00
Перевод: Не требуется
Субтитры: нет

Файл
Формат: avi
Качество: WEB-DLRip
Видео: XviD build 73, 720x400 (16:9), 25.000 fps, ~ 1410 Kbps (~ 0.196 bit/pixel)
Звук: 48.0 kHz, AC3, 2/0 ch, 192 kbps

Релиз:


[+] MediaInfo
General
Complete name               : D:RazdachiRoza.I.Chertopoloh.2018.XviD.WEBDLRip.GeneralFilmRoza.I.Chertopoloh.e01.avi
Format                      : AVI
Format/Info                 : Audio Video Interleave
File size                   : 557 MiB
Duration                    : 48 min 14 s
Overall bit rate            : 1 615 kb/s
Writing application         : VirtualDubMod 1.5.10.3 | www.virtualdub-fr.org || (build 2550/release)
Writing library             : VirtualDubMod build 2550/release

Video
ID                          : 0
Format                      : MPEG-4 Visual
Format profile              : Advanced Simple@L5
Format settings, BVOP       : 1
Format settings, QPel       : No
Format settings, GMC        : No warppoints
Format settings, Matrix     : Custom
Codec ID                    : XVID
Codec ID/Hint               : XviD
Duration                    : 48 min 14 s
Bit rate                    : 1 413 kb/s
Width                       : 720 pixels
Height                      : 400 pixels
Display aspect ratio        : 16:9
Frame rate                  : 25.000 FPS
Color space                 : YUV
Chroma subsampling          : 4:2:0
Bit depth                   : 8 bits
Scan type                   : Progressive
Compression mode            : Lossy
Bits/(Pixel*Frame)          : 0.196
Stream size                 : 488 MiB (88%)
Writing library             : XviD 73

Audio
ID                          : 1
Format                      : AC-3
Format/Info                 : Audio Coding 3
Format settings, Endianness : Big
Codec ID                    : 2000
Duration                    : 48 min 14 s
Bit rate mode               : Constant
Bit rate                    : 192 kb/s
Channel(s)                  : 2 channels
Channel positions           : Front: L R
Sampling rate               : 48.0 kHz
Frame rate                  : 31.250 FPS (1536 SPF)
Bit depth                   : 16 bits
Compression mode            : Lossy
Stream size                 : 66.3 MiB (12%)
Alignment                   : Split accross interleaves
Interleave, duration        : 40  ms (1.00 video frame)
Interleave, preload duratio : 500  ms
Service kind                : Complete Main



Скриншоты:
[+] Всего файлов в раздаче - 2:
Roza.I.Chertopoloh.e01.avi557.40 MB
Roza.I.Chertopoloh.e02.avi556.80 MB

Текущая раздача:
ДатаКомментарии    РазмерПиры
2018-09-08 U Роза и чертополох [01-02 из 02] (2018) WEB-DLRip от GeneralFilm 1.09 GB ↑ 122 ↓ 53

Показать еще раздачи по запросу роза:
2018-09-08 U Роза и чертополох [01-02 из 02] (2018) SATRip 1.24 GB ↑ 253 ↓ 74
2018-09-07 U Роза и чертополох [01-02 из 02] (2018) SATRip-AVC 1.13 GB ↑ 72 ↓ 5
2018-07-18 U Роза Багдада / La Rose di Bagdad (1949) DVDRip от ExKinoRay | P 742.38 MB ↑ 88 ↓ 10
2017-08-08 U Синяя роза [01-10 из 10] (2016) HDTVRip 720p от MediaClub 11.06 GB ↑ 74 ↓ 54
2017-08-07 U Синяя Роза [01-10 из 10] (2016) HDTVRip от Files-x 5.41 GB ↑ 181 ↓ 177
2014-11-05 U Мифы народов мира 5: Черная Роза. Коллекционное издание (2014) PC 934.54 MB ↑ 524 ↓ 124
2014-03-16 U Беспутная Роза / Rambling Rose (1991) DVDRip-AVC 1.43 GB ↑ 183 ↓ 35

Отзывы
Зарегистрируйтесь чтобы добавить комментарий.
Обратная связь
Copyleft ©