↑↓Torrent.by
Поиск
Логин: Регистрация
Пароль: Восстановить пароль
Загрузка...

Расправа / Reprisal (2018) WEB-DL 1080p | HDrezka Studio

Скачать rasprava-reprisal-2018-web-dl-1080p-hdrezka-studio.torrent
U Магнитная ссылка Размер: 7.73 GB Раздают: 318 Качают: 323 Добавлен: 2018-09-08 15:58:19
Расправа / Reprisal (2018) WEB-DL 1080p | HDrezka Studio

Название: Расправа
Оригинальное название: Reprisal
Год выхода: 2018
Жанр: Боевик, триллер, криминал
Режиссер: Брайан А Миллер
В ролях: Брюс Уиллис, Фрэнк Грилло, Джонатон Шек, Оливия Калпо, Натали Юра, Дядя Мурда, Наталья Софи Батлер, Тайлер Джон Олсон, Уасс М. Стивенс, Колин Эглсфилд

О фильме:
Служащему банка не даёт покоя жестокое ограбление, которое унесло жизнь его коллеги, и он решает выследить неуловимого и методичного грабителя-одиночку с помощью своего соседа - опытного полицейского на пенсии.

 
Страна: США, Великобритания
Студия: Emmett/Furla/Oasis Films (EFO Films), Ingenious Media, Kind Hearts Entertainment
Продолжительность: 01:29:09
Перевод: Профессиональный (многоголосый, закадровый) | HDrezka Studio

Файл
Кодек: H.264
Качество: WEB-DL 1080p | HDrezka Studio
Видео: AVC/H.264, 1920x1040, ~11,6 Мbps, 23.976 fps
Звук:
Аудио 1: AC3, 2 ch, 192 Kbps - Русский
Аудио 2: E-AC3, 6 ch, 640 Kbps - Английский
Субтитры: английские


[+] Mediainfo
Общее
Уникальный идентификатор                 : 100431151078714607808994742697832075993 (0x4B8E560C0998D0BFCA9B16FD4631D2D9)
Полное имя                               : Reprisal.2018.WEB-DL.1080p.mkv
Формат                                   : Matroska
Версия формата                           : Version 4 / Version 2
Размер файла                             : 7,73 Гбайт
Продолжительность                        : 1 ч. 29 м.
Общий поток                              : 12,4 Мбит/сек
Дата кодирования                         : UTC 2018-09-08 08:12:25
Программа кодирования                    : mkvmerge v23.0.0 ('The Bride Said No') 64-bit
Библиотека кодирования                   : libebml v1.3.6 + libmatroska v1.4.9

Видео
Идентификатор                            : 1
Формат                                   : AVC
Формат/Информация                        : Advanced Video Codec
Профиль формата                          : High@L4
Настройки формата                        : CABAC / 4 Ref Frames
Параметр CABAC формата                   : Да
Параметр RefFrames формата               : 4 кадра
Идентификатор кодека                     : V_MPEG4/ISO/AVC
Продолжительность                        : 1 ч. 29 м.
Битрейт                                  : 11,6 Мбит/сек
Ширина                                   : 1920 пикселей
Высота                                   : 1040 пикселей
Соотношение сторон                       : 1,85:1
Режим частоты кадров                     : Постоянный
Частота кадров                           : 23,976 (24000/1001) кадра/сек
Цветовое пространство                    : YUV
Субдискретизация насыщенности            : 4:2:0
Битовая глубина                          : 8 бит
Тип развёртки                            : Прогрессивная
Бит/(Пиксели*Кадры)                      : 0.242
Размер потока                            : 7,21 Гбайт (93%)
Язык                                     : English
Default                                  : Да
Forced                                   : Нет
Цветовой диапазон                        : Limited
Основные цвета                           : BT.709
Характеристики трансфера                 : BT.709
Коэффициенты матрицы                     : BT.709

Аудио #1
Идентификатор                            : 2
Формат                                   : AC-3
Формат/Информация                        : Audio Coding 3
Идентификатор кодека                     : A_AC3
Продолжительность                        : 1 ч. 29 м.
Вид битрейта                             : Постоянный
Битрейт                                  : 192 Кбит/сек
Каналы                                   : 2 канала
Расположение каналов                     : Front: L R
Частота                                  : 48,0 КГц
Частота кадров                           : 31,250 кадров/сек (1536 SPF)
Битовая глубина                          : 16 бит
Метод сжатия                             : С потерями
Размер потока                            : 122 Мбайт (2%)
Заголовок                                : MVO | HDRezka Studio
Язык                                     : Russian
ServiceKind                              : Complete Main
Default                                  : Да
Forced                                   : Нет

Аудио #2
Идентификатор                            : 3
Формат                                   : E-AC-3
Формат/Информация                        : Enhanced Audio Coding 3
Идентификатор кодека                     : A_EAC3
Продолжительность                        : 1 ч. 29 м.
Вид битрейта                             : Постоянный
Битрейт                                  : 640 Кбит/сек
Каналы                                   : 6 каналов
Расположение каналов                     : Front: L C R, Side: L R, LFE
Частота                                  : 48,0 КГц
Частота кадров                           : 187,500 кадров/сек (256 SPF)
Метод сжатия                             : С потерями
Размер потока                            : 408 Мбайт (5%)
Язык                                     : English
ServiceKind                              : Complete Main
Default                                  : Нет
Forced                                   : Нет

Текст
Идентификатор                            : 4
Формат                                   : UTF-8
Идентификатор кодека                     : S_TEXT/UTF8
Идентификатор кодека/Информация          : UTF-8 Plain Text
Продолжительность                        : 1 ч. 27 м.
Битрейт                                  : 49 бит/сек
ElementCount                             : 1055
Размер потока                            : 32,0 Кбайт (0%)
Заголовок                                : SDH
Язык                                     : English
Default                                  : Нет
Forced                                   : Нет  



Скриншоты:
[+] Всего файлов в раздаче - 1:
Reprisal.2018.WEB-DL.1080p.mkv7.73 GB

Текущая раздача:
ДатаКомментарии    РазмерПиры
2018-09-08 U Расправа / Reprisal (2018) WEB-DL 1080p | HDrezka Studio 7.73 GB ↑ 318 ↓ 323

Похожие раздачи по запросу - расправа:
2018-09-09 U Расправа / Reprisal (2018) WEB-DLRip-AVC от OlLanDGroup | HDrezka Studio 743.66 MB ↑ 117 ↓ 51
2018-09-09 U Расправа / Reprisal (2018) WEB-DLRip-AVC от OlLanDGroup | HDrezka Studio 1.46 GB ↑ 168 ↓ 68
2018-09-08 U Расправа / Reprisal (2018) WEB-DL 720p | HDrezka Studio 2.90 GB ↑ 357 ↓ 117
2018-09-08 U Расправа / Reprisal (2018) WEB-DLRip от MegaPeer | HDrezka Studio 1.46 GB ↑ 212 ↓ 142
2018-09-08 U Расправа / Reprisal (2018) WEB-DLRip от Dalemake | HDrezka Studio 1.46 GB ↑ 669 ↓ 293

Отзывы
Зарегистрируйтесь чтобы добавить комментарий.
Обратная связь
Copyleft ©