↑↓Torrent.by
Поиск
Логин: Регистрация
Пароль: Восстановить пароль
Загрузка...

Разоблачение Единорога [01-04 из 04] (2018) SATRip-AVC

Скачать razoblachenie-edinoroga-01-04-iz-2018-satrip-avc.torrent
U Магнитная ссылка Размер: 2.30 GB Раздают: 0 Качают: 3 Добавлен: 2018-09-08 22:00:10


>Информация о фильме
>Название: Разоблачение Единорога
>Год выхода: 2018
>Жанр: детектив
>Режиссер: Вячеслав Лавров

>В ролях: Елена Полянская,Алексей Анищенко,Илья Ермолов,Семён Лопатин,Дмитрий Богданов,Алексей Назаров,Александр Сергеев,Анастасия Моргун

>О фильме:
В небольшом городке судьба сводит друзей-однокурсников. Коля Журавлев сделал успешную карьеру чиновника в Москве, там же занимается наукой Лиза Баталова. А Леня Кудрявцев работает в местном музее с нищенской зарплатой и считает себя типичным неудачником. Как и в юные годы, Журавлев и Кудрявцев влюблены в Баталову. Саму же искусствоведа больше интересует бесследно пропавшая много лет назад редкая гравюра с изображением единорога. Пока в архивах провинции женщина ищет след пропажи, в Москве убивают владельцев других гравюр с такими же сюжетами. А когда погибает похожая на искусствоведа девушка, становится понятно: Лизе угрожает опасность. И Николай, и Леонид пытаются защитить любимую. Правда, каждый это делает по-своему...  


>Страна: Россия | Яуза-Фильм | Твин
>Продолжительность: ~ 00:43:00
>Язык: Русский


>Файл
>Качество: SATRip-AVC
>Видео: MPEG-4 AVC, ~ 1700 Кбит/с, 720х400
>Звук: AC3, 2 ch, 192 Кбит/с







[+] "MediaInfo"

Общее
Уникальный идентификатор                 : 225145463320786456619737575374048605947 (0xA961706006B75D97B5DAD7DD730A36FB)
Полное имя                               : H:\Разоблачение Единорога\01 серия_Разоблачение Единорога_rip by_Aleksan55.mkv
Формат                                   : Matroska
Версия формата                           : Version 2
Размер файла                             : 604 Мбайт
Продолжительность                        : 44 м. 37 с.
Общий поток                              : 1894 Кбит/сек
Дата кодирования                         : UTC 2018-09-08 10:17:03
Программа кодирования                    : mkvmerge v7.8.0 ('River Man') 32bit built on Apr  3 2015 12:11:22
Библиотека кодирования                   : libebml v1.3.1 + libmatroska v1.4.2

Видео
Идентификатор                            : 1
Формат                                   : AVC
Формат/Информация                        : Advanced Video Codec
Профиль формата                          : High@L4.1
Параметр CABAC формата                   : Да
Параметр ReFrames формата                : 14 кадров
Идентификатор кодека                     : V_MPEG4/ISO/AVC
Продолжительность                        : 44 м. 37 с.
Битрейт                                  : 1700 Кбит/сек
Ширина                                   : 720 пикселей
Высота                                   : 400 пикселей
Соотношение сторон                       : 16:9
Режим частоты кадров                     : Постоянный
Частота кадров                           : 25,000 кадров/сек
Цветовое пространство                    : YUV
Субдискретизация насыщенности            : 4:2:0
Битовая глубина                          : 8 бит
Тип развёртки                            : Прогрессивная
Бит/(Пиксели*Кадры)                      : 0.236
Размер потока                            : 531 Мбайт (88%)
Библиотека кодирования                   : x264 core 146 r2538 121396c
Настройки программы                      : cabac=1 / ref=14 / deblock=1:-1:-1 / analyse=0x3:0x133 / me=umh / subme=9 / psy=1 / psy_rd=0.90:0.15 / mixed_ref=0 / me_range=32 / chroma_me=1 / trellis=2 / 8x8dct=1 / cqm=0 / deadzone=21,11 / fast_pskip=1 / chroma_qp_offset=-3 / threads=12 / lookahead_threads=1 / sliced_threads=0 / nr=0 / decimate=0 / interlaced=0 / bluray_compat=0 / constrained_intra=0 / bframes=14 / b_pyramid=2 / b_adapt=1 / b_bias=0 / direct=3 / weightb=1 / open_gop=0 / weightp=2 / keyint=250 / keyint_min=25 / scenecut=40 / intra_refresh=0 / rc_lookahead=40 / rc=2pass / mbtree=1 / bitrate=1700 / ratetol=1.0 / qcomp=0.60 / qpmin=0 / qpmax=39 / qpstep=4 / cplxblur=20.0 / qblur=0.5 / ip_ratio=1.40 / aq=1:1.00
Default                                  : Да
Forced                                   : Нет
Цветовой диапазон                        : Limited
Основные цвета                           : BT.601 PAL
Характеристики трансфера                 : BT.470 System B, BT.470 System G
Коэффициенты матрицы                     : BT.601

Аудио
Идентификатор                            : 2
Формат                                   : AC-3
Формат/Информация                        : Audio Coding 3
Расширение режима                        : CM (complete main)
Параметр Endianness формата              : Big
Идентификатор кодека                     : A_AC3
Продолжительность                        : 44 м. 37 с.
Вид битрейта                             : Постоянный
Битрейт                                  : 192 Кбит/сек
Каналы                                   : 2 канала
Расположение каналов                     : Front: L R
Частота                                  : 48,0 КГц
Частота кадров                           : 31,250 кадров/сек (1536 spf)
Битовая глубина                          : 16 бит
Метод сжатия                             : С потерями
Размер потока                            : 61,3 Мбайт (10%)
Default                                  : Да
Forced                                   : Нет                     :


[+] "Скриншоты"

         



[+] Всего файлов в раздаче - 4:
01 серия_Разоблачение Единорога_rip by_Aleksan55.mkv604.48 MB
02 серия_Разоблачение Единорога_rip by_Aleksan55.mkv586.74 MB
03 серия_Разоблачение Единорога_rip by_Aleksan55.mkv583.84 MB
04 серия_Разоблачение Единорога_rip by_Aleksan55.mkv578.26 MB

Текущая раздача:
ДатаКомментарии    РазмерПиры
2018-09-08 U Разоблачение Единорога [01-04 из 04] (2018) SATRip-AVC 2.30 GB ↑ 0 ↓ 3

Похожие раздачи по запросу - разоблачение:
2018-09-09 U Разоблачение Единорога [01-04 из 04] (2018) WEB-DLRip-AVC от Files-x 2.29 GB ↑ 67 ↓ 67
2018-09-09 U Разоблачение Единорога / Единорог [01-04 из 04] (2018) WEB-DLRip от Files-x 2.17 GB ↑ 96 ↓ 55

Отзывы
Зарегистрируйтесь чтобы добавить комментарий.
Обратная связь
Copyleft ©