↑↓Torrent.by
Поиск
Логин: Регистрация
Пароль: Восстановить пароль
Загрузка...

Расправа / Reprisal (2018) WEB-DL 720p | HDrezka Studio

Скачать rasprava-reprisal-2018-web-dl-720p-hdrezka-studio.torrent
U Магнитная ссылка Размер: 2.90 GB Раздают: 355 Качают: 116 Добавлен: 2018-09-08 23:11:09
Расправа / Reprisal (2018) WEB-DL 720p | HDrezka Studio

Название: Расправа
Оригинальное название: Reprisal
Год выхода: 2018
Жанр: Боевик, триллер, криминал
Режиссер: Брайан А Миллер
В ролях: Брюс Уиллис, Фрэнк Грилло, Джонатон Шек, Оливия Калпо, Натали Юра, Дядя Мурда, Наталья Софи Батлер, Тайлер Джон Олсон, Уасс М. Стивенс, Колин Эглсфилд

О фильме:
Служащему банка не даёт покоя жестокое ограбление, которое унесло жизнь его коллеги, и он решает выследить неуловимого и методичного грабителя-одиночку с помощью своего соседа - опытного полицейского на пенсии.

 
Страна: США, Великобритания
Студия: Emmett/Furla/Oasis Films (EFO Films), Ingenious Media, Kind Hearts Entertainment
Продолжительность: 01:29:09
Перевод: Профессиональный (многоголосый, закадровый) | HDrezka Studio

Файл
Кодек: H.264
Качество: WEB-DL 720p | HDrezka Studio
Видео: AVC/H.264, 1280x690, ~4071 Кbps, 23.976 fps
Звук:
Аудио 1: AC3, 2 ch, 192 Kbps - Русский
Аудио 2: AC3, 6 ch, 384 Kbps - Английский
Субтитры: английские


[+] Mediainfo
Общее
Уникальный идентификатор                 : 134845639161303607024075171536069482895 (0x6572534F950FA79850E10AC6E664598F)
Полное имя                               : Reprisal.2018.WEB-DL.720p.mkv
Формат                                   : Matroska
Версия формата                           : Version 4 / Version 2
Размер файла                             : 2,90 Гбайт
Продолжительность                        : 1 ч. 29 м.
Общий поток                              : 4649 Кбит/сек
Дата кодирования                         : UTC 2018-09-08 13:51:23
Программа кодирования                    : mkvmerge v23.0.0 ('The Bride Said No') 64-bit
Библиотека кодирования                   : libebml v1.3.6 + libmatroska v1.4.9

Видео
Идентификатор                            : 1
Формат                                   : AVC
Формат/Информация                        : Advanced Video Codec
Профиль формата                          : High@L3.1
Настройки формата                        : 2 Ref Frames
Параметр CABAC формата                   : Нет
Параметр RefFrames формата               : 2 кадра
Идентификатор кодека                     : V_MPEG4/ISO/AVC
Продолжительность                        : 1 ч. 29 м.
Битрейт                                  : 4071 Кбит/сек
Ширина                                   : 1280 пикселей
Высота                                   : 690 пикселей
Соотношение сторон                       : 1,85:1
Режим частоты кадров                     : Постоянный
Частота кадров                           : 23,976 (24000/1001) кадра/сек
Цветовое пространство                    : YUV
Субдискретизация насыщенности            : 4:2:0
Битовая глубина                          : 8 бит
Тип развёртки                            : Прогрессивная
Бит/(Пиксели*Кадры)                      : 0.192
Размер потока                            : 2,54 Гбайт (88%)
Язык                                     : English
Default                                  : Да
Forced                                   : Нет
Цветовой диапазон                        : Limited
Основные цвета                           : BT.709
Характеристики трансфера                 : BT.709
Коэффициенты матрицы                     : BT.709

Аудио #1
Идентификатор                            : 2
Формат                                   : AC-3
Формат/Информация                        : Audio Coding 3
Идентификатор кодека                     : A_AC3
Продолжительность                        : 1 ч. 29 м.
Вид битрейта                             : Постоянный
Битрейт                                  : 192 Кбит/сек
Каналы                                   : 2 канала
Расположение каналов                     : Front: L R
Частота                                  : 48,0 КГц
Частота кадров                           : 31,250 кадров/сек (1536 SPF)
Битовая глубина                          : 16 бит
Метод сжатия                             : С потерями
Задержка видео                           : -42 мс.
Размер потока                            : 122 Мбайт (4%)
Заголовок                                : MVO | HDrezka Studio
Язык                                     : Russian
ServiceKind                              : Complete Main
Default                                  : Да
Forced                                   : Нет

Аудио #2
Идентификатор                            : 3
Формат                                   : AC-3
Формат/Информация                        : Audio Coding 3
Идентификатор кодека                     : A_AC3
Продолжительность                        : 1 ч. 29 м.
Вид битрейта                             : Постоянный
Битрейт                                  : 384 Кбит/сек
Каналы                                   : 6 каналов
Расположение каналов                     : Front: L C R, Side: L R, LFE
Частота                                  : 48,0 КГц
Частота кадров                           : 31,250 кадров/сек (1536 SPF)
Битовая глубина                          : 16 бит
Метод сжатия                             : С потерями
Задержка видео                           : -42 мс.
Размер потока                            : 245 Мбайт (8%)
Язык                                     : English
ServiceKind                              : Complete Main
Default                                  : Нет
Forced                                   : Нет

Текст
Идентификатор                            : 4
Формат                                   : UTF-8
Идентификатор кодека                     : S_TEXT/UTF8
Идентификатор кодека/Информация          : UTF-8 Plain Text
Продолжительность                        : 1 ч. 27 м.
Битрейт                                  : 49 бит/сек
ElementCount                             : 1055
Размер потока                            : 32,0 Кбайт (0%)
Заголовок                                : SDH
Язык                                     : English
Default                                  : Нет
Forced                                   : Нет

Меню
00:00:00.000                             : en:1
00:03:18.000                             : en:2
00:14:18.000                             : en:3
00:25:52.000                             : en:4
00:35:06.000                             : en:5
00:44:31.000                             : en:6
00:56:40.000                             : en:7
01:06:04.000                             : en:8
01:15:40.000                             : en:9
01:26:17.000                             : en:10  



Скриншоты:
[+] Всего файлов в раздаче - 1:
Reprisal.2018.WEB-DL.720p.mkv2.90 GB

Текущая раздача:
ДатаКомментарии    РазмерПиры
2018-09-08 U Расправа / Reprisal (2018) WEB-DL 720p | HDrezka Studio 2.90 GB ↑ 355 ↓ 116

Похожие раздачи по запросу - расправа:
2018-09-09 U Расправа / Reprisal (2018) WEB-DLRip-AVC от OlLanDGroup | HDrezka Studio 743.66 MB ↑ 116 ↓ 51
2018-09-09 U Расправа / Reprisal (2018) WEB-DLRip-AVC от OlLanDGroup | HDrezka Studio 1.46 GB ↑ 159 ↓ 67
2018-09-08 U Расправа / Reprisal (2018) WEB-DLRip от MegaPeer | HDrezka Studio 1.46 GB ↑ 206 ↓ 142
2018-09-08 U Расправа / Reprisal (2018) WEB-DL 1080p | HDrezka Studio 7.73 GB ↑ 316 ↓ 323
2018-09-08 U Расправа / Reprisal (2018) WEB-DLRip от Dalemake | HDrezka Studio 1.46 GB ↑ 666 ↓ 292

Отзывы
Зарегистрируйтесь чтобы добавить комментарий.
Обратная связь
Copyleft ©