↑↓Torrent.by
Поиск
Логин: Регистрация
Пароль: Восстановить пароль
Загрузка...

Пансион / Boarding School (2018) WEB-DL 1080p | HDrezka Studio

Скачать pansion-boarding-school-2018-web-dl-1080p-hdrezka-studio.torrent
U Магнитная ссылка Размер: 4.37 GB Раздают: 162 Качают: 53 Добавлен: 2018-09-08 23:11:59
Пансион / Boarding School (2018) WEB-DL 1080p | HDrezka Studio

Название: Пансион
Оригинальное название: Boarding School
Год выхода: 2018
Жанр: Ужасы
Режиссер: Боаз Якин
В ролях: Люк Праель, Стерлинг Джеринс, Уилл Пэттон, Коби Джордж, Кадин Джордж, Николас Оливери, Саманта Мэтис, Роберт Джон Бёрк, Надя Александр, Люси Уолтерс

О фильме:
После смерти своей бабушки, Джейкоб стал одержим идеей во всём походить на неё. Из-за этого его родители были вынуждены отправить его в закрытую школу, где всё подчиняется лишь прихоти её загадочного и жестокого хозяина.

 
Страна: США
Студия: Farcaster Films,Gigantic Pictures,Maven Pictures
Продолжительность: 01:51:48
Перевод: Профессиональный (многоголосый, закадровый) | HDrezka Studio

Файл
Кодек: H.264
Качество: WEB-DL 1080p | HDrezka Studio
Видео: AVC/H.264, 1920x1080, ~5013 kbps, 23.976 fps
Звук:
Аудио 1: AC3, 2 ch, 192 Kbps - Русский
Аудио 2: AC3, 6 ch, 384 Kbps - Английский
Субтитры: английские


[+] Mediainfo
Общее
Уникальный идентификатор                 : 284796591957456699071359175735750835520 (0xD641D4155DDFB515BBD5671FD8FA3D40)
Полное имя                               : Boarding School.2018.WEB-DL.1080p.mkv
Формат                                   : Matroska
Версия формата                           : Version 4 / Version 2
Размер файла                             : 4,37 Гбайт
Продолжительность                        : 1 ч. 51 м.
Общий поток                              : 5591 Кбит/сек
Дата кодирования                         : UTC 2018-09-08 08:46:00
Программа кодирования                    : mkvmerge v23.0.0 ('The Bride Said No') 64-bit
Библиотека кодирования                   : libebml v1.3.6 + libmatroska v1.4.9

Видео
Идентификатор                            : 1
Формат                                   : AVC
Формат/Информация                        : Advanced Video Codec
Профиль формата                          : High@L4
Настройки формата                        : CABAC / 4 Ref Frames
Параметр CABAC формата                   : Да
Параметр RefFrames формата               : 4 кадра
Идентификатор кодека                     : V_MPEG4/ISO/AVC
Продолжительность                        : 1 ч. 51 м.
Битрейт                                  : 5013 Кбит/сек
Ширина                                   : 1920 пикселей
Высота                                   : 1080 пикселей
Соотношение сторон                       : 16:9
Режим частоты кадров                     : Постоянный
Частота кадров                           : 23,976 (23976/1000) кадра/сек
Цветовое пространство                    : YUV
Субдискретизация насыщенности            : 4:2:0
Битовая глубина                          : 8 бит
Тип развёртки                            : Прогрессивная
Бит/(Пиксели*Кадры)                      : 0.101
Размер потока                            : 3,92 Гбайт (90%)
Язык                                     : English
Default                                  : Да
Forced                                   : Нет
Цветовой диапазон                        : Limited
Основные цвета                           : BT.709
Характеристики трансфера                 : BT.709
Коэффициенты матрицы                     : BT.709

Аудио #1
Идентификатор                            : 2
Формат                                   : AC-3
Формат/Информация                        : Audio Coding 3
Идентификатор кодека                     : A_AC3
Продолжительность                        : 1 ч. 51 м.
Вид битрейта                             : Постоянный
Битрейт                                  : 192 Кбит/сек
Каналы                                   : 2 канала
Расположение каналов                     : Front: L R
Частота                                  : 48,0 КГц
Частота кадров                           : 31,250 кадров/сек (1536 SPF)
Битовая глубина                          : 16 бит
Метод сжатия                             : С потерями
Задержка видео                           : -42 мс.
Размер потока                            : 154 Мбайт (3%)
Заголовок                                : MVO | HDrezka Studio
Язык                                     : Russian
ServiceKind                              : Complete Main
Default                                  : Да
Forced                                   : Нет

Аудио #2
Идентификатор                            : 3
Формат                                   : AC-3
Формат/Информация                        : Audio Coding 3
Идентификатор кодека                     : A_AC3
Продолжительность                        : 1 ч. 51 м.
Вид битрейта                             : Постоянный
Битрейт                                  : 384 Кбит/сек
Каналы                                   : 6 каналов
Расположение каналов                     : Front: L C R, Side: L R, LFE
Частота                                  : 48,0 КГц
Частота кадров                           : 31,250 кадров/сек (1536 SPF)
Битовая глубина                          : 16 бит
Метод сжатия                             : С потерями
Задержка видео                           : -42 мс.
Размер потока                            : 307 Мбайт (7%)
Язык                                     : English
ServiceKind                              : Complete Main
Default                                  : Нет
Forced                                   : Нет

Текст
Идентификатор                            : 4
Формат                                   : UTF-8
Идентификатор кодека                     : S_TEXT/UTF8
Идентификатор кодека/Информация          : UTF-8 Plain Text
Продолжительность                        : 1 ч. 51 м.
Битрейт                                  : 51 бит/сек
ElementCount                             : 1329
Размер потока                            : 42,0 Кбайт (0%)
Заголовок                                : SDH
Язык                                     : English
Default                                  : Нет
Forced                                   : Нет

Меню
00:00:00.000                             : en:1
00:07:19.397                             : en:2
00:13:32.269                             : en:3
00:21:06.264                             : en:4
00:28:05.600                             : en:5
00:33:59.370                             : en:6
00:43:18.595                             : en:7
00:47:08.700                             : en:8
00:56:29.635                             : en:9
01:02:31.330                             : en:10
01:10:25.387                             : en:11
01:16:08.104                             : en:12
01:20:40.042                             : en:13
01:32:23.787                             : en:14
01:39:43.977                             : en:15
01:42:33.730                             : en:16  



Скриншоты:
[+] Всего файлов в раздаче - 1:
Boarding School.2018.WEB-DL.1080p.mkv4.37 GB

Текущая раздача:
ДатаКомментарии    РазмерПиры
2018-09-08 U Пансион / Boarding School (2018) WEB-DL 1080p | HDrezka Studio 4.37 GB ↑ 162 ↓ 53

Похожие раздачи по запросу - пансион:
2018-09-10 U Пансион / Boarding School (2018) WEB-DLRip-AVC от ExKinoRay | HDRezka Studio 745.97 MB ↑ 52 ↓ 7
2017-06-21 U Полный пансион / Pension complète (2015) WEB-DLRip | P 1.45 GB ↑ 81 ↓ 25
2017-06-19 U Полный пансион / Pension complète (2015) WEB-DLRip-AVC от ImperiaFilm | P 741.14 MB ↑ 94 ↓ 26

Отзывы
Зарегистрируйтесь чтобы добавить комментарий.
Обратная связь
Copyleft ©