↑↓Torrent.by
Поиск
Логин: Регистрация
Пароль: Восстановить пароль
Загрузка...

Опасная игра Слоун / Мисс Слоун / Miss Sloane (2016) BDRip 1080p | iTunes

Скачать opasnaya-igra-sloun-miss-sloane-2016-bdrip-1080p-itunes.torrent
U Магнитная ссылка Размер: 15.50 GB Раздают: 123 Качают: 51 Добавлен: 2018-09-09 07:13:57
Опасная игра Слоун / Мисс Слоун / Miss Sloane (2016) BDRip 1080p | iTunes

Название: Опасная игра Слоун / Мисс Слоун
Оригинальное название: Miss Sloane
Год выпуска: 2016
Жанр:  триллер, драма
Режиссер: Джон Мэдден
В ролях: Джессика Честейн (Madeline Elizabeth Sloane), Дэвид Уилсон Барнс (Daniel Posner), Джон Литгоу (Senator Ronald Sperling), Элисон Пилл (Jane Molloy), Аарон Хейл (Spencer), Али Мукаддам (Ross), Майкл Стулбарг (Pat Connors), Дуглас Смит (Alex), Грэйс Линн Кунг (Lauren), Ной Роббинс (Franklin), Чак Шамата (Bill Sanford), Сэм Уотерстон (George Dupont)

О фильме: Победитель всегда на шаг впереди, и Элизабет, как никто другой, знает об этом. Ее главное оружие против своих оппонентов: непредсказуемость и манипуляция. Благодаря своим навыкам, Слоун быстро взлетает на верхушку политической карьеры. Кто-то в восторге от ее работы, а кто-то сжимает кулаки ярости...
Дело принимает совсем другие обороты, когда игра Слоун начинается против тех, кто управляет оружием в стране. Перейдя границы условно безопасной политики, она врывается на поле боя, где властвуют не только слова и дебаты. Здесь есть оружие, жестокость и смерть неугодных системе...

MPAA: R - Лицам до 17 лет обязательно присутствие взрослого

Страна: Франция, США
Студия: Archery Pictures, FilmNation Entertainment, Transfilm
Продолжительность: 02:12:11
Перевод: Профессиональный (дублированный) iTunes

Файл
Качество: BDRip 1080p | playHD
Формат: Matroska
Видео: 1920х804 at 23.976 fps, x264, ~15400 kbps avg
Аудио#1: Russian: 48 kHz, AC3, 3/2 (L,C,R,l,r) + LFE ch, ~384 kbps avg |Дубляж, iTunes|
Аудио#2: English: 48 kHz, AC3, 3/2 (L,C,R,l,r) + LFE ch, ~640 kbps avg
Субтитры: Russian, English

***Сохранены оригинальные главы как на Blu-ray.
***Релиз: werecut PROD.


[+] Знаете ли вы, что...
Сценарий фильма попал в Топ 5 Черного списка Голливуда за 2015 год.
Режиссер Джон Мэдден передал сценарий актрисе Джессике Честейн лично. На эту роль он рассматривал только ее. Ранее актриса снималась у Мэддена в фильме «Расплата» (2010).
Сценарист Джонатан Перера был единственным писателем, работавшим над сценарием. Это редкость в киноиндустрии.
В фильме играют три оскаровских номинанта: Джон Литгоу, Сэм Уотерстон и Джессика Честейн.
Сэм Уотерстон и Элисон Пилл ранее снимались вместе в сериале «Служба новостей» (2012-2014).
Джессика Честейн и Марк Стронг также снялись вместе в фильме «Цель номер один» (2012).



[+] MediaInfo
Общее
Уникальный идентификатор                 : 100524793879105215730937587466075936046 (0x4BA05EFE58951971666CBC3E61D8952E)
Полное имя                               : Miss.Sloane.2016.bdriP.108Op.werecut.PROD.mkv
Формат                                   : Matroska
Версия формата                           : Version 4 / Version 2
Размер файла                             : 15,5 Гбайт
Продолжительность                        : 2 ч. 12 м.
Общий поток                              : 16,8 Мбит/сек
Название фильма                          : Miss Sloane 2016 OT werecut PROD.
Дата кодирования                         : UTC 2018-09-08 14:37:18
Программа кодирования                    : mkvmerge v24.0.0 ('Beyond The Pale') 64-bit
Библиотека кодирования                   : libebml v1.3.6 + libmatroska v1.4.9

Видео
Идентификатор                            : 1
Формат                                   : AVC
Формат/Информация                        : Advanced Video Codec
Профиль формата                          : High@L4.1
Параметр CABAC формата                   : Да
Параметр ReFrames формата                : 5 кадров
Идентификатор кодека                     : V_MPEG4/ISO/AVC
Продолжительность                        : 2 ч. 12 м.
Битрейт                                  : 15,4 Мбит/сек
Ширина                                   : 1920 пикселей
Высота                                   : 804 пикселя
Соотношение сторон                       : 2,40:1
Режим частоты кадров                     : Постоянный
Частота кадров                           : 23,976 кадра/сек
Цветовое пространство                    : YUV
Субдискретизация насыщенности            : 4:2:0
Битовая глубина                          : 8 бит
Тип развёртки                            : Прогрессивная
Бит/(Пиксели*Кадры)                      : 0.417
Размер потока                            : 14,2 Гбайт (92%)
Библиотека кодирования                   : x264 core 155 r2901 7d0ff22
Настройки программы                      : cabac=1 / ref=5 / deblock=1:-3:-3 / analyse=0x3:0x133 / me=umh / subme=10 / psy=1 / psy_rd=1.00:0.00 / mixed_ref=1 / me_range=32 / chroma_me=1 / trellis=2 / 8x8dct=1 / cqm=0 / deadzone=21,11 / fast_pskip=0 / chroma_qp_offset=-2 / threads=10 / lookahead_threads=1 / sliced_threads=0 / nr=0 / decimate=0 / interlaced=0 / bluray_compat=0 / constrained_intra=0 / bframes=8 / b_pyramid=2 / b_adapt=2 / b_bias=0 / direct=3 / weightb=1 / open_gop=0 / weightp=2 / keyint=250 / keyint_min=23 / scenecut=40 / intra_refresh=0 / rc=crf / mbtree=0 / crf=17.0 / qcomp=0.60 / qpmin=0 / qpmax=69 / qpstep=4 / ip_ratio=1.35 / pb_ratio=1.25 / aq=3:0.80
Язык                                     : English
Default                                  : Да
Forced                                   : Нет

Аудио #1
Идентификатор                            : 2
Формат                                   : AC-3
Формат/Информация                        : Audio Coding 3
Расширение режима                        : CM (complete main)
Параметр Endianness формата              : Big
Идентификатор кодека                     : A_AC3
Продолжительность                        : 2 ч. 12 м.
Вид битрейта                             : Постоянный
Битрейт                                  : 384 Кбит/сек
Каналы                                   : 6 каналов
Расположение каналов                     : Front: L C R, Side: L R, LFE
Частота                                  : 48,0 КГц
Битовая глубина                          : 16 бит
Метод сжатия                             : С потерями
Размер потока                            : 363 Мбайт (2%)
Язык                                     : Russian
Default                                  : Да
Forced                                   : Да

Аудио #2
Идентификатор                            : 3
Формат                                   : AC-3
Формат/Информация                        : Audio Coding 3
Расширение режима                        : CM (complete main)
Параметр Endianness формата              : Big
Идентификатор кодека                     : A_AC3
Продолжительность                        : 2 ч. 12 м.
Вид битрейта                             : Постоянный
Битрейт                                  : 640 Кбит/сек
Каналы                                   : 6 каналов
Расположение каналов                     : Front: L C R, Side: L R, LFE
Частота                                  : 48,0 КГц
Битовая глубина                          : 16 бит
Метод сжатия                             : С потерями
Размер потока                            : 605 Мбайт (4%)
Язык                                     : English
Default                                  : Нет
Forced                                   : Нет

Текст #1
Идентификатор                            : 4
Формат                                   : UTF-8
Идентификатор кодека                     : S_TEXT/UTF8
Идентификатор кодека/Информация          : UTF-8 Plain Text
Язык                                     : Russian
Default                                  : Нет
Forced                                   : Нет

Текст #2
Идентификатор                            : 5
Формат                                   : UTF-8
Идентификатор кодека                     : S_TEXT/UTF8
Идентификатор кодека/Информация          : UTF-8 Plain Text
Язык                                     : English
Default                                  : Нет
Forced                                   : Нет

Меню
00:00:00.000                             : en:00:00:00.000
00:03:17.572                             : en:00:03:17.572
00:10:01.810                             : en:00:10:01.810
00:14:33.331                             : en:00:14:33.331
00:21:39.632                             : en:00:21:39.632
00:27:24.601                             : en:00:27:24.601
00:30:24.614                             : en:00:30:24.614
00:35:40.597                             : en:00:35:40.597
00:40:37.018                             : en:00:40:37.018
00:45:36.651                             : en:00:45:36.651
00:50:08.130                             : en:00:50:08.130
00:56:55.662                             : en:00:56:55.662
01:01:31.146                             : en:01:01:31.146
01:05:00.563                             : en:01:05:00.563
01:10:10.415                             : en:01:10:10.415
01:15:56.552                             : en:01:15:56.552
01:22:25.399                             : en:01:22:25.399
01:31:17.097                             : en:01:31:17.097
01:35:47.825                             : en:01:35:47.825
01:41:48.436                             : en:01:41:48.436
01:45:25.653                             : en:01:45:25.653
01:54:30.781                             : en:01:54:30.781
02:03:40.288                             : en:02:03:40.288
02:08:02.008                             : en:02:08:02.008



Скриншоты:
[+] Всего файлов в раздаче - 1:
Miss.Sloane.2016.bdriP.108Op.werecut.PROD.mkv15.50 GB

Текущая раздача:
ДатаКомментарии    РазмерПиры
2018-09-09 U Опасная игра Слоун / Мисс Слоун / Miss Sloane (2016) BDRip 1080p | iTunes 15.50 GB ↑ 123 ↓ 51

Показать еще раздачи по запросу опасная:
2018-09-09 U Опасная игра Слоун / Мисс Слоун / Miss Sloane (2016) BDRip от MegaPeer | iTunes 2.12 GB ↑ 99 ↓ 31
2018-09-09 U Опасная игра Слоун / Мисс Слоун / Miss Sloane (2016) BDRip от MegaPeer | iTunes 1.46 GB ↑ 160 ↓ 54
2018-09-08 U Опасная игра Слоун / Мисс Слоун / Miss Sloane (2016) BDRip 720p | iTunes 7.08 GB ↑ 222 ↓ 123
2018-07-30 U Опасная профессия / Le plus beau métier du monde (1996) DVDRip | P1 1.37 GB ↑ 62 ↓ 6
2018-06-17 U Опасная подмена / Double Threat (1993) DVDRip | P, A 1.35 GB ↑ 34 ↓ 9
2018-02-03 U Опасная леди / Dangerous Prey (1995) DVDRip | P2 1К1.46 GB ↑ 126 ↓ 56
2018-01-12 U Лабиринты Мира 7: Опасная Игра. Коллекционное издание / Labyrinths of the World 7: A Dangerous Game Collector's Edition (2018) PC 1.43 GB ↑ 140 ↓ 53

Отзывы
Зарегистрируйтесь чтобы добавить комментарий.
Обратная связь
Copyleft ©