↑↓Torrent.by
Поиск
Логин: Регистрация
Пароль: Восстановить пароль
Загрузка...

Кровавый фестиваль / Blood Fest (2018) WEB-DL 1080p | HDrezka Studio

Скачать krovavyy-festival-blood-fest-2018-web-dl-1080p-hdrezka-studio.torrent
U Магнитная ссылка Размер: 4.22 GB Раздают: 96 Качают: 31 Добавлен: 2018-09-09 07:14:09
Кровавый фестиваль / Blood Fest (2018) WEB-DL 1080p | HDrezka Studio

Название: Кровавый фестиваль
Оригинальное название: Blood Fest
Год выхода: 2018
Жанр: Ужасы, комедия
Режиссер: Оуэн Эгертон
В ролях: Закари Ливай, Сейшелл Гэбриел, Тейт Донован, Робби Кей, Джейкоб Баталон, Исла Червелли, Барбара Данкельман, Оливия Грэйс Эпплгейт, Джульетт Кида, Пол Огола

О фильме:
Группа фанатов хорроров приезжает на фестиваль, посвященный знаменитым картинам жанра. Но ведущий фестиваля придумал свой дьявольский план праздника, и теперь любители фильмов ужасов сами окажутся в эпицентре событий кровавого хоррора.

 
Страна: США
Студия: Rooster Teeth Productions
Продолжительность: 01:32:41
Перевод: Профессиональный (многоголосый, закадровый) | HDrezka Studio

Файл
Кодек: H.264
Качество: WEB-DL 1080p | HDrezka Studio
Видео: AVC/H.264, 1920x960, ~5683 kbps, 23.976 fps
Звук:
Аудио 1: AC3, 2 ch, 192 Kbps - Русский
Аудио 2: E-AC3, 6 ch, 640 Kbps - Английский
Субтитры: английские


[+] Mediainfo
Общее
Уникальный идентификатор                 : 178335137991138542275690526273297075786 (0x862A192636E6B25A1CC05B57F51E4E4A)
Полное имя                               : Blood Fest.2018.WEB-DL.1080p.mkv
Формат                                   : Matroska
Версия формата                           : Version 4 / Version 2
Размер файла                             : 4,22 Гбайт
Продолжительность                        : 1 ч. 32 м.
Общий поток                              : 6517 Кбит/сек
Дата кодирования                         : UTC 2018-09-08 09:32:50
Программа кодирования                    : mkvmerge v23.0.0 ('The Bride Said No') 64-bit
Библиотека кодирования                   : libebml v1.3.6 + libmatroska v1.4.9

Видео
Идентификатор                            : 1
Формат                                   : AVC
Формат/Информация                        : Advanced Video Codec
Профиль формата                          : High@L4
Настройки формата                        : CABAC / 4 Ref Frames
Параметр CABAC формата                   : Да
Параметр RefFrames формата               : 4 кадра
Идентификатор кодека                     : V_MPEG4/ISO/AVC
Продолжительность                        : 1 ч. 32 м.
Битрейт                                  : 5683 Кбит/сек
Ширина                                   : 1920 пикселей
Высота                                   : 960 пикселей
Соотношение сторон                       : 2,000
Режим частоты кадров                     : Постоянный
Частота кадров                           : 23,976 (24000/1001) кадра/сек
Цветовое пространство                    : YUV
Субдискретизация насыщенности            : 4:2:0
Битовая глубина                          : 8 бит
Тип развёртки                            : Прогрессивная
Бит/(Пиксели*Кадры)                      : 0.129
Размер потока                            : 3,68 Гбайт (87%)
Язык                                     : English
Default                                  : Да
Forced                                   : Нет
Цветовой диапазон                        : Limited
Основные цвета                           : BT.709
Характеристики трансфера                 : BT.709
Коэффициенты матрицы                     : BT.709

Аудио #1
Идентификатор                            : 2
Формат                                   : AC-3
Формат/Информация                        : Audio Coding 3
Идентификатор кодека                     : A_AC3
Продолжительность                        : 1 ч. 32 м.
Вид битрейта                             : Постоянный
Битрейт                                  : 192 Кбит/сек
Каналы                                   : 2 канала
Расположение каналов                     : Front: L R
Частота                                  : 48,0 КГц
Частота кадров                           : 31,250 кадров/сек (1536 SPF)
Битовая глубина                          : 16 бит
Метод сжатия                             : С потерями
Размер потока                            : 127 Мбайт (3%)
Заголовок                                : MVO | HDrezka Studio
Язык                                     : Russian
ServiceKind                              : Complete Main
Default                                  : Да
Forced                                   : Нет

Аудио #2
Идентификатор                            : 3
Формат                                   : E-AC-3
Формат/Информация                        : Enhanced Audio Coding 3
Идентификатор кодека                     : A_EAC3
Продолжительность                        : 1 ч. 32 м.
Вид битрейта                             : Постоянный
Битрейт                                  : 640 Кбит/сек
Каналы                                   : 6 каналов
Расположение каналов                     : Front: L C R, Side: L R, LFE
Частота                                  : 48,0 КГц
Частота кадров                           : 187,500 кадров/сек (256 SPF)
Метод сжатия                             : С потерями
Размер потока                            : 424 Мбайт (10%)
Язык                                     : English
ServiceKind                              : Complete Main
Default                                  : Нет
Forced                                   : Нет

Текст
Идентификатор                            : 4
Формат                                   : UTF-8
Идентификатор кодека                     : S_TEXT/UTF8
Идентификатор кодека/Информация          : UTF-8 Plain Text
Продолжительность                        : 1 ч. 28 м.
Битрейт                                  : 68 бит/сек
ElementCount                             : 1860
Размер потока                            : 44,1 Кбайт (0%)
Заголовок                                : SDH
Язык                                     : English
Default                                  : Нет
Forced                                   : Нет  



Скриншоты:
[+] Всего файлов в раздаче - 1:
Blood Fest.2018.WEB-DL.1080p.mkv4.22 GB

Текущая раздача:
ДатаКомментарии    РазмерПиры
2018-09-09 U Кровавый фестиваль / Blood Fest (2018) WEB-DL 1080p | HDrezka Studio 4.22 GB ↑ 96 ↓ 31

Показать еще раздачи по запросу кровавый:
2018-09-08 U Кровавый фестиваль / Blood Fest (2018) WEB-DLRip от MegaPeer | HDrezka Studio 1.46 GB ↑ 161 ↓ 37
2018-08-10 U Убойная вечеринка (Кровавый душ) / Killer Party (The Shower) (2014) WEBRip-AVC | datynet 716.02 MB ↑ 35 ↓ 9
2018-08-08 U Байки из склепа: Кровавый бордель / Tales from the Crypt: Bordello of Blood (1996) BDRip-AVC от ExKinoRay | P 745.27 MB ↑ 44 ↓ 4
2018-05-06 U Кровавый урожай / Blood Harvest (2016) WEBRip-AVC | L1 598.63 MB ↑ 72 ↓ 10
2018-04-28 U Кровавый мёд / Blood Honey (2017) WEB-DLRip-AVC | HDrezka Studio 746.21 MB ↑ 59 ↓ 13
2018-04-27 U Кровавый мёд / Blood Honey (2017) WEB-DLRip | HDrezka Studio 1.37 GB ↑ 86 ↓ 34
2017-12-31 U Байки из склепа: Кровавый бордель / Tales from the Crypt: Bordello of Blood (1996) BDRip от HQCLUB 1.45 GB ↑ 92 ↓ 24

Отзывы
Зарегистрируйтесь чтобы добавить комментарий.
Обратная связь
Copyleft ©