↑↓Torrent.by
Поиск
Логин: Регистрация
Пароль: Восстановить пароль
Загрузка...

Мир Юрского периода 2 / Jurassic World: Fallen Kingdom (2018) HDRip от GeneralFilm

Скачать mir-yurskogo-perioda-2-jurassic-world-fallen-kingdom-2018-hdrip-ot-generalfilm.torrent
U Магнитная ссылка Размер: 1.46 GB Раздают: 80 Качают: 27 Добавлен: 2018-09-09 07:14:25
Мир Юрского периода 2 / Jurassic World: Fallen Kingdom (2018) HDRip от GeneralFilm

Название: Мир Юрского периода 2
Оригинальное название: Jurassic World: Fallen Kingdom
Год выхода: 2018
Жанр: Фантастика, боевик, приключения
Режиссер: Хуан Антонио Байона
В ролях: Брайс Даллас Ховард, Крис Прэтт, Джефф Голдблюм, Тед Левайн, Джеймс Кромуэлл, Тоби Джонс, Б. Д. Вонг, Рейф Сполл, Даниэлла Пинеда, Джеральдин Чаплин

О фильме:
На острове Исла-Нублар, где не так давно располагался парк развлечений с динозаврами, правит бал дикая природа. Но без людей все далеко не так спокойно, как могло бы показаться. Основатели парка приняли решение построить его, несмотря на активный вулкан, расположенный в сердце острова. Вулкан пробудился и рискует потопить остров в лаве. Управляющая парка Клэр Дэринг уговаривает дрессировщика Оуэна Грэди вернуться в бывший парк и спасти динозавров от неминуемой гибели.

Страна: США, Испания
Студия: Universal Pictures
Продолжительность: 02:08:17
Перевод: Дублированный | iTunes
Субтитры: Нет

Файл
Формат: AVI
Качество: BDRip | BDRip 1080p |
Видео: XviD, 720x304 (2.35:1), 23.976 fps, 1427 Kbps (0.272 bit/pixel)
Звук: 48.0 kHz, AC3 2/0 ch, 192 kbps

Релиз:


[+] MediaInfo
General
Complete name               : D:RazdachiMir.Urskogo.Perioda.II.2018.XviD.HDRip.GeneralFilm.avi
Format                      : AVI
Format/Info                 : Audio Video Interleave
File size                   : 1.46 GiB
Duration                    : 2 h 8 min
Overall bit rate            : 1 629 kb/s
Writing application         : VirtualDubMod 1.5.10.3 | www.virtualdub-fr.org || (build 2550/release)
Writing library             : VirtualDubMod build 2550/release

Video
ID                          : 0
Format                      : MPEG-4 Visual
Format profile              : Advanced Simple@L5
Format settings, BVOP       : 1
Format settings, QPel       : No
Format settings, GMC        : No warppoints
Format settings, Matrix     : Custom
Codec ID                    : XVID
Codec ID/Hint               : XviD
Duration                    : 2 h 8 min
Bit rate                    : 1 427 kb/s
Width                       : 720 pixels
Height                      : 304 pixels
Display aspect ratio        : 2.35:1
Frame rate                  : 23.976 (24000/1001) FPS
Color space                 : YUV
Chroma subsampling          : 4:2:0
Bit depth                   : 8 bits
Scan type                   : Progressive
Compression mode            : Lossy
Bits/(Pixel*Frame)          : 0.272
Stream size                 : 1.28 GiB (88%)
Writing library             : XviD 73

Audio
ID                          : 1
Format                      : AC-3
Format/Info                 : Audio Coding 3
Format settings, Endianness : Big
Codec ID                    : 2000
Duration                    : 2 h 8 min
Bit rate mode               : Constant
Bit rate                    : 192 kb/s
Channel(s)                  : 6 channels
Channel positions           : Front: L C R, Side: L R, LFE
Sampling rate               : 48.0 kHz
Frame rate                  : 31.250 FPS (1536 SPF)
Bit depth                   : 16 bits
Compression mode            : Lossy
Stream size                 : 176 MiB (12%)
Alignment                   : Split accross interleaves
Interleave, duration        : 42  ms (1.00 video frame)
Interleave, preload duratio : 500  ms
Service kind                : Complete Main



Скриншоты:
[+] Всего файлов в раздаче - 1:
Mir.Urskogo.Perioda.II.2018.XviD.HDRip.GeneralFilm.avi1.46 GB

Текущая раздача:
ДатаКомментарии    РазмерПиры
2018-09-09 U Мир Юрского периода 2 / Jurassic World: Fallen Kingdom (2018) HDRip от GeneralFilm 1.46 GB ↑ 80 ↓ 27

Показать еще раздачи по запросу юрского:
2018-09-17 U Мир Юрского периода 2 / Jurassic World: Fallen Kingdom (2018) BDRip 720p от Scarabey | iTunes 4.20 GB ↑ 48 ↓ 17
2018-09-14 U Мир Юрского периода 2 / Jurassic World: Fallen Kingdom (2018) BDRip-AVC от New-Team | D 2.80 GB ↑ 81 ↓ 31
2018-09-14 U Мир Юрского периода 2 / Jurassic World: Fallen Kingdom (2018) BDRip от ExKinoRay | iTunes 2.13 GB ↑ 98 ↓ 37
2018-09-14 U Мир Юрского периода 2 / Jurassic World: Fallen Kingdom (2018) BDRip-AVC от New-Team | D 1.48 GB ↑ 41 ↓ 11
2018-09-14 U Мир Юрского периода 2 / Jurassic World: Fallen Kingdom (2018) BDRip от ExKinoRay | iTunes 1.46 GB ↑ 54 ↓ 15
2018-09-13 U Мир Юрского периода 2 / Jurassic World: Fallen Kingdom (2018) BDRip-AVC от potroks | iTunes 2.85 GB ↑ 62 ↓ 23
2018-09-13 U Мир Юрского периода 2 / Jurassic World: Fallen Kingdom (2018) BDRip 1080p от qqss44 & MegaPeer | iTunes 7.51 GB ↑ 156 ↓ 112

Отзывы
Зарегистрируйтесь чтобы добавить комментарий.
Обратная связь
Copyleft ©