↑↓Torrent.by
Поиск
Логин: Регистрация
Пароль: Восстановить пароль
Загрузка...

Нарушение общественного порядка / Public Disturbance (2018) WEB-DL 1080p от OlLanDGroup | HDRezka Studio

Скачать narushenie-obschestvennogo-poryadka-public-disturbance-2018-web-dl-1080p-ot-ollandgroup-hdrezka-studio.torrent
U Магнитная ссылка Размер: 3.36 GB Раздают: 49 Качают: 29 Добавлен: 2018-09-09 07:14:52
Нарушение общественного порядка / Public Disturbance (2018) WEB-DL 1080p от OlLanDGroup | HDRezka Studio

Нарушение общественного порядка / Public Disturbance

Год выпуска: 2018
Страна: США
Производство: Lionsgate, Perlapartment Pictures
Жанр:  Комедия

Режиссёр: Дэнни Ли
В ролях: Эмбер Стивенс, Джозеф Лоуренс, Скайлер Сэмюэлс, Аманда Серни, Бобби Ли, Майк Тайсон, Теси Дхенрадж, Алексис Краузе, Риган Барнс, Ханна Кэт Джонс

Перевод: Профессиональный (многоголосый, закадровый) | HDRezka Studio
Субтитры: Английские (полные)
Реклама: Отсутствует

Описание: Некоторые личности не признают общепринятых устоев. Они не считают, что должны подчиняться неписаным правилам, которые придумали какие-то снобы. Поэтому весело настроенная молодежь стремиться с юмором подходит ко всему, что можно высмеять. Пранкеры стали популярны в обществе, с тех пор как заявили о себе во всеуслышание. Эти бесстрашные господа сделали провокацию своей профессией, что позволило под неожиданным углом посмотреть на тех, кто четко соблюдает законы и нормы. Молодежная команда «Джаноскианс» получила скандальную популярность, воплощая в реальность свои сумасбродные идеи. Легко ли ребятам вести такой странный способ существования? Во что могут вылиться смелые экскременты храбрецов? На чем построены шутки уникального коллектива, который без спросу вторгается в запрещенные зоны? История нестандартного подхода к комическим ситуациям завораживает своей непредсказуемостью. От этих неформалов можно ожидать любых сюрпризов, к которым приличные граждане не способны подготовиться. Публика обожает свои «героев», который постоянно радуют новыми выходками.

Качество: WEB-DL 1080p | iTunes Version | Public.Disturbance.2018.1080p.WEB-DL.DD5.1.H264-FGT
Продолжительность: 01:24:08

Формат: MKV
Видео кодек: MPEG-4 AVC
Аудио кодек: AC3
Видео: 1908x1000 (1.91:1), 23,976 fps, x264 ~5 146 kbps avg, 0.112 bit/pixel
Аудио #1: 48 kHz, AC3 Dolby Digital, 2 (L,R) ch, ~192.00 kbps avg | RUS (HDRezka Studio)
Аудио #2: 48 kHz, AC3 Dolby Digital Plus, 3/2 (L,C,R,l,r) + LFE ch, ~384.00 kbps avg | ENG

Дата премьеры (мир): 28 августа 2018
Дата премьеры (РФ):

Релиз:


[+] MediaInfo

Общее
Уникальный идентификатор                 : 116068835970917526364464427342433674125 (0x57520B70310473BF8F27092605ACE38D)
Полное имя                               : F:OlLanDGroupPublic.Disturbance.2018.WEB-DL(1080p).OlLanDGroup.mkv
Формат                                   : Matroska
Версия формата                           : Version 4 / Version 2
Размер файла                             : 3,36 Гбайт
Продолжительность                        : 1 ч. 24 м.
Общий поток                              : 5725 Кбит/сек
Название фильма                          : Public.Disturbance.2018   #TorpedoUK#
Дата кодирования                         : UTC 2018-09-08 16:20:28
Программа кодирования                    : mkvmerge v25.0.0 ('Prog Noir') 64-bit
Библиотека кодирования                   : libebml v1.3.6 + libmatroska v1.4.9
Обложка                                  : Yes
Attachments                              : small_cover.jpg / small_cover_land.jpg / cover.jpg / cover_land.jpg

Видео
Идентификатор                            : 1
Формат                                   : AVC
Формат/Информация                        : Advanced Video Codec
Профиль формата                          : High@L4
Параметр CABAC формата                   : Да
Параметр ReFrames формата                : 4 кадра
Идентификатор кодека                     : V_MPEG4/ISO/AVC
Продолжительность                        : 1 ч. 24 м.
Битрейт                                  : 5146 Кбит/сек
Ширина                                   : 1908 пикселей
Высота                                   : 1000 пикселей
Соотношение сторон                       : 1,908
Режим частоты кадров                     : Постоянный
Частота кадров                           : 23,976 (24000/1001) кадра/сек
Цветовое пространство                    : YUV
Субдискретизация насыщенности            : 4:2:0
Битовая глубина                          : 8 бит
Тип развёртки                            : Прогрессивная
Бит/(Пиксели*Кадры)                      : 0.112
Размер потока                            : 3,02 Гбайт (90%)
Заголовок                                : Public.Disturbance.2018.1080p.WEB-DL.DD5.1.H264-FGT
Язык                                     : English
Default                                  : Да
Forced                                   : Нет
Цветовой диапазон                        : Limited
Основные цвета                           : BT.709
Характеристики трансфера                 : BT.709
Коэффициенты матрицы                     : BT.709

Аудио #1
Идентификатор                            : 2
Формат                                   : AC-3
Формат/Информация                        : Audio Coding 3
Расширение режима                        : CM (complete main)
Параметр Endianness формата              : Big
Идентификатор кодека                     : A_AC3
Продолжительность                        : 1 ч. 24 м.
Вид битрейта                             : Постоянный
Битрейт                                  : 192 Кбит/сек
Каналы                                   : 2 канала
Расположение каналов                     : Front: L R
Частота                                  : 48,0 КГц
Частота кадров                           : 31,250 кадров/сек (1536 spf)
Битовая глубина                          : 16 бит
Метод сжатия                             : С потерями
Задержка видео                           : -42 мс.
Размер потока                            : 116 Мбайт (3%)
Заголовок                                : MVO [HDRezka Studio]
Язык                                     : Russian
Default                                  : Да
Forced                                   : Нет

Аудио #2
Идентификатор                            : 3
Формат                                   : AC-3
Формат/Информация                        : Audio Coding 3
Расширение режима                        : CM (complete main)
Параметр Endianness формата              : Big
Идентификатор кодека                     : A_AC3
Продолжительность                        : 1 ч. 24 м.
Вид битрейта                             : Постоянный
Битрейт                                  : 384 Кбит/сек
Каналы                                   : 6 каналов
Расположение каналов                     : Front: L C R, Side: L R, LFE
Частота                                  : 48,0 КГц
Частота кадров                           : 31,250 кадров/сек (1536 spf)
Битовая глубина                          : 16 бит
Метод сжатия                             : С потерями
Задержка видео                           : -42 мс.
Размер потока                            : 231 Мбайт (7%)
Заголовок                                : [Original]
Язык                                     : English
Default                                  : Нет
Forced                                   : Нет

Текст
Идентификатор                            : 4
Формат                                   : UTF-8
Идентификатор кодека                     : S_TEXT/UTF8
Идентификатор кодека/Информация          : UTF-8 Plain Text
Продолжительность                        : 1 ч. 19 м.
Битрейт                                  : 86 бит/сек
Count of elements                        : 1422
Размер потока                            : 50,5 Кбайт (0%)
Заголовок                                : Full
Язык                                     : English
Default                                  : Нет
Forced                                   : Нет

Меню
00:00:00.000                             : en:1
00:11:34.000                             : en:2
00:21:04.000                             : en:3
00:31:43.000                             : en:4
00:41:59.000                             : en:5
00:52:29.000                             : en:6
01:01:42.000                             : en:7
01:11:55.000                             : en:8
01:19:49.000                             : en:9



[+] Описание
Некоторые личности не признают общепринятых устоев. Они не считают, что должны подчиняться неписаным правилам, которые придумали какие-то снобы. Поэтому весело настроенная молодежь стремиться с юмором подходит ко всему, что можно высмеять. Пранкеры стали популярны в обществе, с тех пор как заявили о себе во всеуслышание. Эти бесстрашные господа сделали провокацию своей профессией, что позволило под неожиданным углом посмотреть на тех, кто четко соблюдает законы и нормы. Молодежная команда «Джаноскианс» получила скандальную популярность, воплощая в реальность свои сумасбродные идеи. Легко ли ребятам вести такой странный способ существования? Во что могут вылиться смелые экскременты храбрецов? На чем построены шутки уникального коллектива, который без спросу вторгается в запрещенные зоны? История нестандартного подхода к комическим ситуациям завораживает своей непредсказуемостью. От этих неформалов можно ожидать любых сюрпризов, к которым приличные граждане не способны подготовиться. Публика обожает свои «героев», который постоянно радуют новыми выходками.



Скриншоты:
[+] Всего файлов в раздаче - 1:
Public.Disturbance.2018.WEB-DL(1080p).OlLanDGroup.mkv3.36 GB

Отзывы
Зарегистрируйтесь чтобы добавить комментарий.
Обратная связь
Copyleft ©