↑↓Torrent.by
Поиск
Логин: Регистрация
Пароль: Восстановить пароль
Загрузка...

Суперфлай / Superfly (2018) BDRip-AVC от OlLanDGroup | HDrezka Studio

Скачать superflay-superfly-2018-bdrip-avc-ot-ollandgroup-hdrezka-studio.torrent
U Магнитная ссылка Размер: 2.23 GB Раздают: 214 Качают: 92 Добавлен: 2018-09-09 12:04:31
Суперфлай / Superfly (2018) BDRip-AVC от OlLanDGroup | HDrezka Studio

Суперфлай / Superfly
«Redefine The Hustle»

Год выпуска: 2018
Страна: США
Производство: Columbia Pictures, Silver Pictures, Sony Pictures Entertainment
Жанр:  Боевик, триллер, криминал

Режиссёр: Директор Икс.
В ролях: Тревор Джексон, Джейсон Митчелл, Майкл Кеннет Уильямс, Лекс Скотт Дэвис, Дженнифер Моррисон, Каалан Рашад Уокер, Эсай Моралес, Андреа Лондо, Биг Банк Блэк, Биг Бой

Перевод: Профессиональный (многоголосый, закадровый) | HDRezka Studio
Субтитры: Английские (полные, SDH)
Реклама: Отсутствует

Описание: Темнокожий наркодилер Янгблад Прист ждет не дождется, когда он сможет выйти из преступного бизнеса. Но для начала ему нужно заработать на честную жизнь, продав огромную партию кокаина. Список дел Приста пополняется разборками с полицейскими, разоблачением друга-предателя и устройством личной жизни с любимой девушкой Джорджией.

Качество: BDRip-AVC | BDRemux | SuperFly.2018.1080p.BluRay.REMUX.AVC.DTS-HD.MA.5.1-FGT
Продолжительность: 01:56:11

Формат: MKV
Видео кодек: MPEG-4 AVC
Аудио кодек: AC3
Видео: 1024x554 (1.85:1), 23,976 fps, x264 ~2 105 kbps avg, 0.155 bit/pixel
Аудио #1: 48 kHz, AC3 Dolby Digital, 2 (L,R) ch, ~192.00 kbps avg | RUS (HDRezka Studio)
Аудио #2: 48 kHz, AC3 Dolby Digital, 3/2 (L,C,R,l,r) + LFE ch, ~448.00 kbps avg | ENG

Дата премьеры (мир): 13 июня 2018
Дата премьеры (РФ):

Релиз:


[+] MediaInfo

Общее
Уникальный идентификатор                 : 221441110316405250630037297423597233173 (0xA69801ABCC2AABD4C59EB1F811E4E415)
Полное имя                               : F:OlLanDGroupSuperFly.2018.BDRip(AVC).OlLanDGroup.mkv
Формат                                   : Matroska
Версия формата                           : Version 4 / Version 2
Размер файла                             : 2,23 Гбайт
Продолжительность                        : 1 ч. 56 м.
Общий поток                              : 2747 Кбит/сек
Название фильма                          : SuperFly.2018   #TorpedoUK#
Дата кодирования                         : UTC 2018-09-09 03:07:35
Программа кодирования                    : mkvmerge v25.0.0 ('Prog Noir') 64-bit
Библиотека кодирования                   : libebml v1.3.6 + libmatroska v1.4.9
Обложка                                  : Yes
Attachments                              : small_cover_land.jpg / cover.jpg / cover_land.jpg / small_cover.jpg

Видео
Идентификатор                            : 1
Формат                                   : AVC
Формат/Информация                        : Advanced Video Codec
Профиль формата                          : High@L4.1
Параметр CABAC формата                   : Да
Параметр ReFrames формата                : 10 кадров
Идентификатор кодека                     : V_MPEG4/ISO/AVC
Продолжительность                        : 1 ч. 56 м.
Битрейт                                  : 2105 Кбит/сек
Ширина                                   : 1024 пикселя
Высота                                   : 554 пикселя
Соотношение сторон                       : 1,85:1
Режим частоты кадров                     : Постоянный
Частота кадров                           : 23,976 (24000/1001) кадра/сек
Цветовое пространство                    : YUV
Субдискретизация насыщенности            : 4:2:0
Битовая глубина                          : 8 бит
Тип развёртки                            : Прогрессивная
Бит/(Пиксели*Кадры)                      : 0.155
Размер потока                            : 1,71 Гбайт (77%)
Библиотека кодирования                   : x264 core 146 r2538 121396c
Настройки программы                      : cabac=1 / ref=10 / deblock=1:-3:-3 / analyse=0x3:0x113 / me=umh / subme=11 / psy=1 / psy_rd=0.98:0.04 / mixed_ref=1 / me_range=48 / chroma_me=1 / trellis=2 / 8x8dct=1 / cqm=0 / deadzone=21,11 / fast_pskip=1 / chroma_qp_offset=-3 / threads=6 / lookahead_threads=1 / sliced_threads=0 / nr=0 / decimate=1 / interlaced=0 / bluray_compat=0 / constrained_intra=0 / bframes=10 / b_pyramid=2 / b_adapt=2 / b_bias=0 / direct=3 / weightb=1 / open_gop=0 / weightp=2 / keyint=240 / keyint_min=23 / scenecut=40 / intra_refresh=0 / rc_lookahead=40 / rc=2pass / mbtree=0 / bitrate=2105 / ratetol=1.0 / qcomp=0.60 / qpmin=0 / qpmax=69 / qpstep=4 / cplxblur=20.0 / qblur=0.5 / vbv_maxrate=50000 / vbv_bufsize=62500 / nal_hrd=none / filler=0 / ip_ratio=1.40 / pb_ratio=1.30 / aq=1:1.00
Язык                                     : English
Default                                  : Да
Forced                                   : Нет

Аудио #1
Идентификатор                            : 2
Формат                                   : AC-3
Формат/Информация                        : Audio Coding 3
Расширение режима                        : CM (complete main)
Параметр Endianness формата              : Big
Идентификатор кодека                     : A_AC3
Продолжительность                        : 1 ч. 56 м.
Вид битрейта                             : Постоянный
Битрейт                                  : 192 Кбит/сек
Каналы                                   : 2 канала
Расположение каналов                     : Front: L R
Частота                                  : 48,0 КГц
Частота кадров                           : 31,250 кадров/сек (1536 spf)
Битовая глубина                          : 16 бит
Метод сжатия                             : С потерями
Размер потока                            : 160 Мбайт (7%)
Заголовок                                : MVO [HDRezka Studio]
Язык                                     : Russian
Default                                  : Да
Forced                                   : Нет

Аудио #2
Идентификатор                            : 3
Формат                                   : AC-3
Формат/Информация                        : Audio Coding 3
Расширение режима                        : CM (complete main)
Параметр Endianness формата              : Big
Идентификатор кодека                     : A_AC3
Продолжительность                        : 1 ч. 56 м.
Вид битрейта                             : Постоянный
Битрейт                                  : 448 Кбит/сек
Каналы                                   : 6 каналов
Расположение каналов                     : Front: L C R, Side: L R, LFE
Частота                                  : 48,0 КГц
Частота кадров                           : 31,250 кадров/сек (1536 spf)
Битовая глубина                          : 16 бит
Метод сжатия                             : С потерями
Размер потока                            : 372 Мбайт (16%)
Заголовок                                : [Original]
Язык                                     : English
Default                                  : Нет
Forced                                   : Нет

Текст #1
Идентификатор                            : 4
Формат                                   : UTF-8
Идентификатор кодека                     : S_TEXT/UTF8
Идентификатор кодека/Информация          : UTF-8 Plain Text
Продолжительность                        : 1 ч. 48 м.
Битрейт                                  : 64 бит/сек
Count of elements                        : 1567
Размер потока                            : 51,2 Кбайт (0%)
Заголовок                                : Full
Язык                                     : English
Default                                  : Нет
Forced                                   : Нет

Текст #2
Идентификатор                            : 5
Формат                                   : UTF-8
Идентификатор кодека                     : S_TEXT/UTF8
Идентификатор кодека/Информация          : UTF-8 Plain Text
Продолжительность                        : 1 ч. 56 м.
Битрейт                                  : 83 бит/сек
Count of elements                        : 2070
Размер потока                            : 70,8 Кбайт (0%)
Заголовок                                : SDH
Язык                                     : English
Default                                  : Нет
Forced                                   : Нет

Меню
00:00:00.000                             : en:Chapter 01
00:05:54.145                             : en:Chapter 02
00:14:24.321                             : en:Chapter 03
00:21:11.603                             : en:Chapter 04
00:28:39.926                             : en:Chapter 05
00:35:25.915                             : en:Chapter 06
00:40:37.518                             : en:Chapter 07
00:47:54.121                             : en:Chapter 08
00:54:24.511                             : en:Chapter 09
01:00:06.227                             : en:Chapter 10
01:08:10.628                             : en:Chapter 11
01:16:01.348                             : en:Chapter 12
01:22:30.487                             : en:Chapter 13
01:32:03.559                             : en:Chapter 14
01:38:19.852                             : en:Chapter 15
01:47:35.449                             : en:Chapter 16



Скриншоты:
[+] Всего файлов в раздаче - 1:
SuperFly.2018.BDRip(AVC).OlLanDGroup.mkv2.23 GB

Текущая раздача:
ДатаКомментарии    РазмерПиры
2018-09-09 U Суперфлай / Superfly (2018) BDRip-AVC от OlLanDGroup | HDrezka Studio 2.23 GB ↑ 214 ↓ 92

Похожие раздачи по запросу - суперфлай:
2018-09-15 U Суперфлай / Superfly (2018) BDRip 1080p от OlLanDGroup | HDrezka Studio 7.92 GB ↑ 107 ↓ 66
2018-09-09 U Суперфлай / Superfly (2018) BDRip от MegaPeer | HDrezka Studio 1.47 GB ↑ 306 ↓ 109

Отзывы
Зарегистрируйтесь чтобы добавить комментарий.
Обратная связь
Copyleft ©