↑↓Torrent.by
Поиск
Логин: Регистрация
Пароль: Восстановить пароль
Загрузка...

Расправа / Reprisal (2018) WEB-DLRip-AVC от OlLanDGroup | HDrezka Studio

Скачать rasprava-reprisal-2018-web-dlrip-avc-ot-ollandgroup-hdrezka-studio.torrent
U Магнитная ссылка Размер: 1.46 GB Раздают: 156 Качают: 67 Добавлен: 2018-09-09 12:04:40
Расправа / Reprisal (2018) WEB-DLRip-AVC от OlLanDGroup | HDrezka Studio

Расправа / Reprisal
«A Life for a Life»

Год выпуска: 2018
Страна: Великобритания, США
Производство: Emmett/Furla Films, Ingenious Media, Kind Hearts Entertainment
Жанр:  Боевик, триллер, криминал

Режиссёр: Брайан А Миллер
В ролях: Брюс Уиллис, Фрэнк Грилло, Джонатон Шек, Оливия Калпо, Натали Юра, Дядя Мурда, Наталья Софи Батлер, Тайлер Джон Олсон, Уасс М. Стивенс, Колин Эглсфилд

Перевод:  Профессиональный (многоголосый закадровый) HDrezka Studio
Субтитры: Английские
Реклама: Отсутствует

Описание: Служащему банка не даёт покоя жестокое ограбление, которое унесло жизнь его коллеги, и он решает выследить неуловимого и методичного грабителя-одиночку с помощью своего соседа - опытного полицейского на пенсии.

Качество: WEB-DLRip-AVC | |
Продолжительность: 01:29:09

Формат: MKV
Видео кодек: MPEG-4 AVC
Аудио кодек: AC3
Видео: 1024x554 (1.85:1), 23,976 fps, x264 ~1 703 kbps avg, 0.125 bit/pixel
Аудио #1: 48 kHz, Audio Coding 3, 2 (L,R) ch, ~192.00 kbps avg | RUS (HDrezka Studio)
Аудио #2: 48 kHz, AC3 Dolby Digital, 3/2 (L,C,R,l,r) + LFE ch, ~448.00 kbps avg | ENG

Дата премьеры (мир):  30 августа 2018

Релиз:


[+] MediaInfo

Общее
Уникальный идентификатор                 : 199175333181592563882060991888371924562 (0x95D7C61A19EB1D933A4B3C7B88FEBE52)
Полное имя                               : F:OlLanDGroupReprisal.2018.x264.WEB-DLRip.(AVC).OlLanDGroup.mkv
Формат                                   : Matroska
Версия формата                           : Version 4 / Version 2
Размер файла                             : 1,46 Гбайт
Продолжительность                        : 1 ч. 29 м.
Общий поток                              : 2344 Кбит/сек
Название фильма                          : Reprisal.2018   #TorpedoUK#
Дата кодирования                         : UTC 2018-09-09 04:56:17
Программа кодирования                    : mkvmerge v25.0.0 ('Prog Noir') 64-bit
Библиотека кодирования                   : libebml v1.3.6 + libmatroska v1.4.9
Обложка                                  : Yes
Attachments                              : cover.jpg

Видео
Идентификатор                            : 1
Формат                                   : AVC
Формат/Информация                        : Advanced Video Codec
Профиль формата                          : High@L4.1
Параметр CABAC формата                   : Да
Параметр ReFrames формата                : 10 кадров
Идентификатор кодека                     : V_MPEG4/ISO/AVC
Продолжительность                        : 1 ч. 29 м.
Битрейт                                  : 1703 Кбит/сек
Ширина                                   : 1024 пикселя
Высота                                   : 554 пикселя
Соотношение сторон                       : 1,85:1
Режим частоты кадров                     : Постоянный
Частота кадров                           : 23,976 (24000/1001) кадра/сек
Цветовое пространство                    : YUV
Субдискретизация насыщенности            : 4:2:0
Битовая глубина                          : 8 бит
Тип развёртки                            : Прогрессивная
Бит/(Пиксели*Кадры)                      : 0.125
Размер потока                            : 1,06 Гбайт (73%)
Библиотека кодирования                   : x264 core 146 r2538 121396c
Настройки программы                      : cabac=1 / ref=10 / deblock=1:-3:-3 / analyse=0x3:0x113 / me=umh / subme=10 / psy=1 / psy_rd=0.98:0.05 / mixed_ref=1 / me_range=48 / chroma_me=1 / trellis=2 / 8x8dct=1 / cqm=0 / deadzone=21,11 / fast_pskip=1 / chroma_qp_offset=-3 / threads=6 / lookahead_threads=1 / sliced_threads=0 / nr=0 / decimate=1 / interlaced=0 / bluray_compat=0 / constrained_intra=0 / bframes=10 / b_pyramid=2 / b_adapt=2 / b_bias=0 / direct=3 / weightb=1 / open_gop=0 / weightp=2 / keyint=240 / keyint_min=23 / scenecut=40 / intra_refresh=0 / rc_lookahead=40 / rc=2pass / mbtree=0 / bitrate=1703 / ratetol=1.0 / qcomp=0.60 / qpmin=0 / qpmax=69 / qpstep=4 / cplxblur=20.0 / qblur=0.5 / vbv_maxrate=50000 / vbv_bufsize=62500 / nal_hrd=none / filler=0 / ip_ratio=1.40 / pb_ratio=1.30 / aq=1:1.00
Default                                  : Да
Forced                                   : Нет

Аудио #1
Идентификатор                            : 2
Формат                                   : AC-3
Формат/Информация                        : Audio Coding 3
Расширение режима                        : CM (complete main)
Параметр Endianness формата              : Big
Идентификатор кодека                     : A_AC3
Продолжительность                        : 1 ч. 29 м.
Вид битрейта                             : Постоянный
Битрейт                                  : 192 Кбит/сек
Каналы                                   : 2 канала
Расположение каналов                     : Front: L R
Частота                                  : 48,0 КГц
Частота кадров                           : 31,250 кадров/сек (1536 spf)
Битовая глубина                          : 16 бит
Метод сжатия                             : С потерями
Размер потока                            : 122 Мбайт (8%)
Заголовок                                : MVO [HDrezka Studio]
Язык                                     : Russian
Default                                  : Да
Forced                                   : Нет

Аудио #2
Идентификатор                            : 3
Формат                                   : AC-3
Формат/Информация                        : Audio Coding 3
Расширение режима                        : CM (complete main)
Параметр Endianness формата              : Big
Идентификатор кодека                     : A_AC3
Продолжительность                        : 1 ч. 29 м.
Вид битрейта                             : Постоянный
Битрейт                                  : 448 Кбит/сек
Каналы                                   : 6 каналов
Расположение каналов                     : Front: L C R, Side: L R, LFE
Частота                                  : 48,0 КГц
Частота кадров                           : 31,250 кадров/сек (1536 spf)
Битовая глубина                          : 16 бит
Метод сжатия                             : С потерями
Размер потока                            : 286 Мбайт (19%)
Заголовок                                : [Original]
Язык                                     : English
Default                                  : Нет
Forced                                   : Нет

Текст
Идентификатор                            : 4
Формат                                   : UTF-8
Идентификатор кодека                     : S_TEXT/UTF8
Идентификатор кодека/Информация          : UTF-8 Plain Text
Продолжительность                        : 1 ч. 27 м.
Битрейт                                  : 49 бит/сек
Count of elements                        : 1055
Размер потока                            : 32,0 Кбайт (0%)
Заголовок                                : SDH
Язык                                     : English
Default                                  : Нет
Forced                                   : Нет

Меню
00:00:00.000                             : en:1
00:03:18.000                             : en:2
00:14:18.000                             : en:3
00:25:52.000                             : en:4
00:35:06.000                             : en:5
00:44:31.000                             : en:6
00:56:40.000                             : en:7
01:06:04.000                             : en:8
01:15:40.000                             : en:9
01:26:17.000                             : en:10



Скриншоты:
[+] Всего файлов в раздаче - 1:
Reprisal.2018.x264.WEB-DLRip.(AVC).OlLanDGroup.mkv1.46 GB

Текущая раздача:
ДатаКомментарии    РазмерПиры
2018-09-09 U Расправа / Reprisal (2018) WEB-DLRip-AVC от OlLanDGroup | HDrezka Studio 1.46 GB ↑ 156 ↓ 67

Похожие раздачи по запросу - расправа:
2018-09-09 U Расправа / Reprisal (2018) WEB-DLRip-AVC от OlLanDGroup | HDrezka Studio 743.66 MB ↑ 113 ↓ 51
2018-09-08 U Расправа / Reprisal (2018) WEB-DL 720p | HDrezka Studio 2.90 GB ↑ 356 ↓ 114
2018-09-08 U Расправа / Reprisal (2018) WEB-DLRip от MegaPeer | HDrezka Studio 1.46 GB ↑ 204 ↓ 142
2018-09-08 U Расправа / Reprisal (2018) WEB-DL 1080p | HDrezka Studio 7.73 GB ↑ 315 ↓ 323
2018-09-08 U Расправа / Reprisal (2018) WEB-DLRip от Dalemake | HDrezka Studio 1.46 GB ↑ 665 ↓ 292

Отзывы
Зарегистрируйтесь чтобы добавить комментарий.
Обратная связь
Copyleft ©