↑↓Torrent.by
Поиск
Логин: Регистрация
Пароль: Восстановить пароль
Загрузка...

Взятка (2018) WEBRip

Скачать vzyatka-2018-webrip.torrent
U Магнитная ссылка Размер: 191.06 MB Раздают: 141 Качают: 34 Добавлен: 2018-09-09 15:28:20
Взятка (2018) WEBRip

Название: Взятка
Год выхода: 2018
Жанр:  Комедия, короткометражный
Режиссер: Алексей Харитонов
Актеры: Михаил Трухин, Сергей Бурунов, Николай Ковбас, Сергей Анненков, Александр Ревенко

Описание:
Гражданин предлагает следователю взятку, чтобы закрыть дело… о взятке. Но события разворачиваются непредсказуемо.

Производство: Россия / FakePublish, Life Is Short, PinUp Production
Дата премьеры в России: 4 июня 2018
Продолжительность: 00:12:17
Перевод: Не требуется (русский)
Субтитры: Отсутствуют

Файл
Качество видео: WEBRip
Формат видео: AVI
Видео: 720x304 (2.37:1), 23.976 fps, XviD build 73 ~1972 kbps avg, 0.38 bit/pixel
Аудио: 48 kHz, AC3 Dolby Digital, 2/0 (L,R) ch, ~192 kbps


[+] M/I
General
Complete name : D:Vzyatka.2018.WEB-DLRip.avi
Format : AVI
Format/Info : Audio Video Interleave
File size : 191 MiB
Duration : 12mn 17s
Overall bit rate : 2 174 Kbps
Writing application : VirtualDubMod 1.5.10.3 | www.virtualdub-fr.org || (build 2550/release)
Writing library : VirtualDubMod build 2550/release

Video
ID : 0
Format : MPEG-4 Visual
Format profile : Advanced Simple@L5
Format settings, BVOP : 1
Format settings, QPel : No
Format settings, GMC : No warppoints
Format settings, Matrix : Default (MPEG)
Codec ID : XVID
Codec ID/Hint : XviD
Duration : 12mn 17s
Bit rate : 1 972 Kbps
Width : 720 pixels
Height : 304 pixels
Display aspect ratio : 2.35:1
Frame rate : 23.976 fps
Color space : YUV
Chroma subsampling : 4:2:0
Bit depth : 8 bits
Scan type : Progressive
Compression mode : Lossy
Bits/(Pixel*Frame) : 0.376
Stream size : 173 MiB (91%)
Writing library : XviD 73

Audio
ID : 1
Format : AC-3
Format/Info : Audio Coding 3
Mode extension : CM (complete main)
Format settings, Endianness : Big
Codec ID : 2000
Duration : 12mn 17s
Bit rate mode : Constant
Bit rate : 192 Kbps
Channel count : 2 channels
Channel positions : Front: L R
Sampling rate : 48.0 KHz
Bit depth : 16 bits
Compression mode : Lossy
Stream size : 16.9 MiB (9%)
Alignment : Split accross interleaves
Interleave, duration : 42 ms (1.00 video frame)
Interleave, preload duration : 500 ms



Скриншоты:
[+] Всего файлов в раздаче - 1:
Vzyatka.2018.WEB-DLRip.avi191.06 MB

Текущая раздача:
ДатаКомментарии    РазмерПиры
2018-09-09 U Взятка (2018) WEBRip 191.06 MB ↑ 141 ↓ 34

Похожие раздачи по запросу - взятка:
2018-09-09 U Взятка (2018) WEBRip-AVC 1К121.19 MB ↑ 91 ↓ 36
2018-09-08 U Взятка (2018) WEBRip 1080p 579.50 MB ↑ 411 ↓ 108

Отзывы
Зарегистрируйтесь чтобы добавить комментарий.
Обратная связь
Copyleft ©