↑↓Torrent.by
Поиск
Логин: Регистрация
Пароль: Восстановить пароль
Загрузка...

Зои / Zoe (2018) WEBRip 1080p от OlLanDGroup | BaibaKo

Скачать zoi-zoe-2018-webrip-1080p-ot-ollandgroup-baibako.torrent
U Магнитная ссылка Размер: 2.93 GB Раздают: 194 Качают: 54 Добавлен: 2018-09-10 07:18:35
Зои / Zoe (2018) WEBRip 1080p от OlLanDGroup | BaibaKo

Зои / Zoe
«В будущем нет одиночества»

Год выпуска: 2018
Страна: США
Производство: Global Road Entertainment, Scott Free Productions
Жанр:  Фантастика, мелодрама

Режиссёр: Дрейк Доримус
В ролях: Леа Сейду, Рашида Джонс, Эван МакГрегор, Тео Джеймс, Мэттью Грей Гублер, Миранда Отто, Кристина Агилера, Джордана Лахойя, Хелен Джонс, Сара Левески

Перевод:  Любительский (многоголосый закадровый) | [BaibaKo]
Субтитры: Английские
Реклама: Отсутствует

Описание: Зои и Коул — ученые будущего, которые разрабатывают идеальных романтических партнеров — синтетиков. Их цель — избавить людей от одиночества и неразделенной любви. Но чем дальше они продвигаются в своих экспериментах, тем сомнительнее выглядят результаты их работы…

Качество: WEBRip 1080p | AMZN Version | Zoe 2018 1080p AMZN WEB-DL DD+5 1 H 264-NTG
Продолжительность: 01:43:43

Формат: MKV
Видео кодек: MPEG-4 AVC
Аудио кодек: AC3
Видео: 1920x800 (2.40:1), 23,976 fps, x264 ~2 954 kbps avg, 0.080 bit/pixel
Аудио #1: 48 kHz, AC3 Dolby Digital, 3/2 (L,C,R,l,r) + LFE ch, ~448.00 kbps avg | RUS [BaibaKo]
Аудио #2: 48 kHz, E-AC3 Dolby Digital Plus, 3/2 (L,C,R,l,r) + LFE ch, ~640.00 kbps avg | ENG

Дата премьеры (мир):  21 апреля 2018

Релиз:


[+] MediaInfo

Общее
Уникальный идентификатор                 : 217156967656546828634355936768148927018 (0xA35EE9214A1C6CA6E5B8BCE7112C722A)
Полное имя                               : F:OlLanDGroupZoe.2018.WEB-DL(1080p).OlLanDGroup.mkv
Формат                                   : Matroska
Версия формата                           : Version 4 / Version 2
Размер файла                             : 2,93 Гбайт
Продолжительность                        : 1 ч. 43 м.
Общий поток                              : 4044 Кбит/сек
Название фильма                          : Zoe.2018   #TorpedoUK#
Дата кодирования                         : UTC 2018-09-09 16:56:46
Программа кодирования                    : mkvmerge v25.0.0 ('Prog Noir') 64-bit
Библиотека кодирования                   : libebml v1.3.6 + libmatroska v1.4.9

Видео
Идентификатор                            : 1
Формат                                   : AVC
Формат/Информация                        : Advanced Video Codec
Профиль формата                          : High@L4
Параметр CABAC формата                   : Да
Параметр ReFrames формата                : 4 кадра
Идентификатор кодека                     : V_MPEG4/ISO/AVC
Продолжительность                        : 1 ч. 43 м.
Битрейт                                  : 2954 Кбит/сек
Ширина                                   : 1920 пикселей
Высота                                   : 800 пикселей
Соотношение сторон                       : 2,40:1
Режим частоты кадров                     : Постоянный
Частота кадров                           : 23,976 (24000/1001) кадра/сек
Цветовое пространство                    : YUV
Субдискретизация насыщенности            : 4:2:0
Битовая глубина                          : 8 бит
Тип развёртки                            : Прогрессивная
Бит/(Пиксели*Кадры)                      : 0.080
Размер потока                            : 2,14 Гбайт (73%)
Default                                  : Да
Forced                                   : Нет
Цветовой диапазон                        : Limited
Основные цвета                           : BT.709
Характеристики трансфера                 : BT.709
Коэффициенты матрицы                     : BT.709

Аудио #1
Идентификатор                            : 2
Формат                                   : AC-3
Формат/Информация                        : Audio Coding 3
Расширение режима                        : CM (complete main)
Параметр Endianness формата              : Big
Идентификатор кодека                     : A_AC3
Продолжительность                        : 1 ч. 43 м.
Вид битрейта                             : Постоянный
Битрейт                                  : 448 Кбит/сек
Каналы                                   : 6 каналов
Расположение каналов                     : Front: L C R, Side: L R, LFE
Частота                                  : 48,0 КГц
Частота кадров                           : 31,250 кадров/сек (1536 spf)
Битовая глубина                          : 16 бит
Метод сжатия                             : С потерями
Размер потока                            : 332 Мбайт (11%)
Заголовок                                : MVO [BaibaKo]
Язык                                     : Russian
Default                                  : Да
Forced                                   : Нет

Аудио #2
Идентификатор                            : 3
Формат                                   : E-AC-3
Формат/Информация                        : Enhanced Audio Coding 3
Параметр Endianness формата              : Big
Идентификатор кодека                     : A_EAC3
Продолжительность                        : 1 ч. 43 м.
Вид битрейта                             : Постоянный
Битрейт                                  : 640 Кбит/сек
Каналы                                   : 6 каналов
Расположение каналов                     : Front: L C R, Side: L R, LFE
Частота                                  : 48,0 КГц
Частота кадров                           : 187,500 кадров/сек (256 spf)
Метод сжатия                             : С потерями
Размер потока                            : 475 Мбайт (16%)
Заголовок                                : [Original]
Язык                                     : English
Default                                  : Нет
Forced                                   : Нет

Текст
Идентификатор                            : 4
Формат                                   : UTF-8
Идентификатор кодека                     : S_TEXT/UTF8
Идентификатор кодека/Информация          : UTF-8 Plain Text
Продолжительность                        : 1 ч. 43 м.
Битрейт                                  : 55 бит/сек
Count of elements                        : 1332
Размер потока                            : 42,2 Кбайт (0%)
Заголовок                                : Full
Язык                                     : English
Default                                  : Нет
Forced                                   : Нет



Скриншоты:
[+] Всего файлов в раздаче - 1:
Zoe.2018.WEB-DL(1080p).OlLanDGroup.mkv2.93 GB

Текущая раздача:
ДатаКомментарии    РазмерПиры
2018-09-10 U Зои / Zoe (2018) WEBRip 1080p от OlLanDGroup | BaibaKo 2 К 2.93 GB ↑ 194 ↓ 54

Показать еще раздачи по запросу webrip:
Сегодня U Улица [03х01-08] (2018) WEBRip 1080p от Getty 6.51 GB ↑ 36 ↓ 111
Сегодня U У прошлого в долгу! [01-04 из 16] (2018) WEBRip от Files-x 2.34 GB ↑ 60 ↓ 16
Сегодня U Улица [03х01-08] (2018) WEBRip 2.35 GB ↑ 24 ↓ 65
Сегодня U Улица [03х01-08] (2018) WEBRip-AVC от Files-x 2.27 GB ↑ 39 ↓ 171
Сегодня U Универ. Новая общага [15х01-16] (2018) WEBRip 1080p от ExKinoRay 14.22 GB ↑ 65 ↓ 413
Сегодня U Следующее поколение / Next Gen (2018) WEBRip 720p | D, L1 3.81 GB ↑ 38 ↓ 7
Вчера U Улица [03х01-07] (2018) WEBRip-AVC от Files-x 1.98 GB ↑ 156 ↓ 381

Отзывы
kvazia
мне понравился

faza20
kvazia" пиво пил,когда смотрел?

Зарегистрируйтесь чтобы добавить комментарий.
Обратная связь
Copyleft ©