↑↓Torrent.by
Поиск
Логин: Регистрация
Пароль: Восстановить пароль
Загрузка...

Зои / Zoe (2018) WEBRip-AVC от OlLanDGroup | BaibaKo

Скачать zoi-zoe-2018-webrip-avc-ot-ollandgroup-baibako.torrent
U Магнитная ссылка Размер: 1.75 GB Раздают: 175 Качают: 76 Добавлен: 2018-09-10 07:18:39
Зои / Zoe (2018) WEBRip-AVC от OlLanDGroup | BaibaKo

Зои / Zoe
«В будущем нет одиночества»

Год выпуска: 2018
Страна: США
Производство: Global Road Entertainment, Scott Free Productions
Жанр:  Фантастика, мелодрама

Режиссёр: Дрейк Доримус
В ролях: Леа Сейду, Рашида Джонс, Эван МакГрегор, Тео Джеймс, Мэттью Грей Гублер, Миранда Отто, Кристина Агилера, Джордана Лахойя, Хелен Джонс, Сара Левески

Перевод:  Любительский (многоголосый закадровый) | [BaibaKo]
Субтитры: Английские
Реклама: Отсутствует

Описание: Зои и Коул — ученые будущего, которые разрабатывают идеальных романтических партнеров — синтетиков. Их цель — избавить людей от одиночества и неразделенной любви. Но чем дальше они продвигаются в своих экспериментах, тем сомнительнее выглядят результаты их работы…

Качество: WEBRip-AVC | AMZN Version | Zoe 2018 1080p AMZN WEB-DL DD+5 1 H 264-NTG
Продолжительность: 01:43:43

Формат: MKV
Видео кодек: MPEG-4 AVC
Аудио кодек: AC3
Видео: 1024x426 (2.40:1), 23,976 fps, x264 ~1 524 kbps avg, 0.146 bit/pixel
Аудио #1: 48 kHz, AC3 Dolby Digital, 3/2 (L,C,R,l,r) + LFE ch, ~448.00 kbps avg | RUS [BaibaKo]
Аудио #2: 48 kHz, AC3 Dolby Digital, 3/2 (L,C,R,l,r) + LFE ch, ~448.00 kbps avg | ENG

Дата премьеры (мир):  21 апреля 2018

Релиз:


[+] MediaInfo

Общее
Уникальный идентификатор                 : 67474031970460383285234644497365133783 (0x32C3069F06ABFE26FDBC23CCE1A6E9D7)
Полное имя                               : F:OlLanDGroupZoe.2018.WEB-DLRip(AVC).OlLanDGroup.mkv
Формат                                   : Matroska
Версия формата                           : Version 4 / Version 2
Размер файла                             : 1,75 Гбайт
Продолжительность                        : 1 ч. 43 м.
Общий поток                              : 2421 Кбит/сек
Название фильма                          : Zoe.2018    #TorpedoUK#
Дата кодирования                         : UTC 2018-09-09 16:18:49
Программа кодирования                    : mkvmerge v25.0.0 ('Prog Noir') 64-bit
Библиотека кодирования                   : libebml v1.3.6 + libmatroska v1.4.9

Видео
Идентификатор                            : 1
Формат                                   : AVC
Формат/Информация                        : Advanced Video Codec
Профиль формата                          : High@L4.1
Параметр CABAC формата                   : Да
Параметр ReFrames формата                : 10 кадров
Идентификатор кодека                     : V_MPEG4/ISO/AVC
Продолжительность                        : 1 ч. 43 м.
Битрейт                                  : 1524 Кбит/сек
Ширина                                   : 1024 пикселя
Высота                                   : 426 пикселей
Соотношение сторон                       : 2,40:1
Режим частоты кадров                     : Постоянный
Частота кадров                           : 23,976 (24000/1001) кадра/сек
Цветовое пространство                    : YUV
Субдискретизация насыщенности            : 4:2:0
Битовая глубина                          : 8 бит
Тип развёртки                            : Прогрессивная
Бит/(Пиксели*Кадры)                      : 0.146
Размер потока                            : 1,10 Гбайт (63%)
Библиотека кодирования                   : x264 core 146 r2538 121396c
Настройки программы                      : cabac=1 / ref=10 / deblock=1:-2:-3 / analyse=0x3:0x113 / me=umh / subme=11 / psy=1 / psy_rd=0.95:0.10 / mixed_ref=1 / me_range=48 / chroma_me=1 / trellis=2 / 8x8dct=1 / cqm=0 / deadzone=21,11 / fast_pskip=1 / chroma_qp_offset=-3 / threads=6 / lookahead_threads=1 / sliced_threads=0 / nr=0 / decimate=1 / interlaced=0 / bluray_compat=0 / constrained_intra=0 / bframes=10 / b_pyramid=2 / b_adapt=2 / b_bias=0 / direct=3 / weightb=1 / open_gop=0 / weightp=2 / keyint=240 / keyint_min=23 / scenecut=40 / intra_refresh=0 / rc_lookahead=40 / rc=2pass / mbtree=1 / bitrate=1524 / ratetol=1.0 / qcomp=0.60 / qpmin=0 / qpmax=69 / qpstep=4 / cplxblur=20.0 / qblur=0.5 / vbv_maxrate=50000 / vbv_bufsize=62500 / nal_hrd=none / filler=0 / ip_ratio=1.40 / aq=1:1.00
Язык                                     : English
Default                                  : Да
Forced                                   : Нет

Аудио #1
Идентификатор                            : 2
Формат                                   : AC-3
Формат/Информация                        : Audio Coding 3
Расширение режима                        : CM (complete main)
Параметр Endianness формата              : Big
Идентификатор кодека                     : A_AC3
Продолжительность                        : 1 ч. 43 м.
Вид битрейта                             : Постоянный
Битрейт                                  : 448 Кбит/сек
Каналы                                   : 6 каналов
Расположение каналов                     : Front: L C R, Side: L R, LFE
Частота                                  : 48,0 КГц
Частота кадров                           : 31,250 кадров/сек (1536 spf)
Битовая глубина                          : 16 бит
Метод сжатия                             : С потерями
Размер потока                            : 332 Мбайт (19%)
Заголовок                                : MVO [BaibaKo]
Язык                                     : Russian
Default                                  : Да
Forced                                   : Нет

Аудио #2
Идентификатор                            : 3
Формат                                   : AC-3
Формат/Информация                        : Audio Coding 3
Расширение режима                        : CM (complete main)
Параметр Endianness формата              : Big
Идентификатор кодека                     : A_AC3
Продолжительность                        : 1 ч. 43 м.
Вид битрейта                             : Постоянный
Битрейт                                  : 448 Кбит/сек
Каналы                                   : 6 каналов
Расположение каналов                     : Front: L C R, Side: L R, LFE
Частота                                  : 48,0 КГц
Частота кадров                           : 31,250 кадров/сек (1536 spf)
Битовая глубина                          : 16 бит
Метод сжатия                             : С потерями
Размер потока                            : 332 Мбайт (19%)
Заголовок                                : [Original]
Язык                                     : English
Default                                  : Нет
Forced                                   : Нет

Текст
Идентификатор                            : 4
Формат                                   : UTF-8
Идентификатор кодека                     : S_TEXT/UTF8
Идентификатор кодека/Информация          : UTF-8 Plain Text
Продолжительность                        : 1 ч. 43 м.
Битрейт                                  : 55 бит/сек
Count of elements                        : 1332
Размер потока                            : 42,2 Кбайт (0%)
Заголовок                                : Full
Язык                                     : English
Default                                  : Нет
Forced                                   : Нет



Скриншоты:
[+] Всего файлов в раздаче - 1:
Zoe.2018.WEB-DLRip(AVC).OlLanDGroup.mkv1.75 GB

Текущая раздача:
ДатаКомментарии    РазмерПиры
2018-09-10 U Зои / Zoe (2018) WEBRip-AVC от OlLanDGroup | BaibaKo 1.75 GB ↑ 175 ↓ 76

Показать еще раздачи по запросу webrip:
Сегодня U Улица [03х01-08] (2018) WEBRip 1080p от Getty 6.51 GB ↑ 36 ↓ 111
Сегодня U У прошлого в долгу! [01-04 из 16] (2018) WEBRip от Files-x 2.34 GB ↑ 60 ↓ 16
Сегодня U Улица [03х01-08] (2018) WEBRip 2.35 GB ↑ 24 ↓ 65
Сегодня U Улица [03х01-08] (2018) WEBRip-AVC от Files-x 2.27 GB ↑ 39 ↓ 171
Сегодня U Универ. Новая общага [15х01-16] (2018) WEBRip 1080p от ExKinoRay 14.22 GB ↑ 65 ↓ 413
Сегодня U Следующее поколение / Next Gen (2018) WEBRip 720p | D, L1 3.81 GB ↑ 38 ↓ 7
Вчера U Улица [03х01-07] (2018) WEBRip-AVC от Files-x 1.98 GB ↑ 156 ↓ 381

Отзывы
Зарегистрируйтесь чтобы добавить комментарий.
Обратная связь
Copyleft ©