↑↓Torrent.by
Поиск
Логин: Регистрация
Пароль: Восстановить пароль
Загрузка...

Мир Юрского периода 2 / Jurassic World: Fallen Kingdom (2018) UHD BDRemux 2160p | 4K | HDR | D

Скачать mir-yurskogo-perioda-2-jurassic-world-fallen-kingdom-2018-uhd-bdremux-2160p-4k-hdr-d.torrent
U Магнитная ссылка Размер: 43.81 GB Раздают: 110 Качают: 83 Добавлен: 2018-09-10 07:18:52
Мир Юрского периода 2 / Jurassic World: Fallen Kingdom (2018) UHD BDRemux 2160p | 4K | HDR | D

Название: Мир Юрского периода 2
Оригинальное название: Jurassic World: Fallen Kingdom
Год выхода: 2018
Жанр: Фантастика, боевик, приключения
Режиссер: Хуан Антонио Байона
В ролях: Брайс Даллас Ховард, Крис Прэтт, Джефф Голдблюм, Тед Левайн, Джеймс Кромуэлл, Тоби Джонс, Б. Д. Вонг, Рейф Сполл, Даниэлла Пинеда, Джеральдин Чапли

О фильме:
На острове Исла-Нублар, где не так давно располагался парк развлечений с динозаврами, правит бал дикая природа. Но без людей все далеко не так спокойно, как могло бы показаться. Основатели парка приняли решение построить его, несмотря на активный вулкан, расположенный в сердце острова. Вулкан пробудился и рискует потопить остров в лаве. Управляющая парка Клэр Дэринг уговаривает дрессировщика Оуэна Грэди вернуться в бывший парк и спасти динозавров от неминуемой гибели

Страна: США, Испания
Студия: Universal Pictures
Продолжительность: 02:08:17
Перевод: Дублированный | iTunes

Файл
Контейнер: MKV
Качество: Blu-Ray Remux (2160p)
Видео: HEVC, 44300 Кбит/с, 3840x2160, 23.976 Кадр/c
Звук 1: Русский (AC3, 6 ch, 384 Кбит/с)
Звук 2: Английский (DTS-HD MA, 8 ch, 4231 Кбит/с)
Субтитры: Русские, английские

Релиз от: werecut PROD.


[+] MI
General
Unique ID : 211163079217953890537583310457756197962 (0x9EDC879D235A9B76C8B9C79C2E58244A)
Complete name : Jurassic.World.Fallen.Kingdom.2018.bdremuX.216Op.werecut.PROD.mkv
Format : Matroska
Format version : Version 4 / Version 2
File size : 43.8 GiB
Duration : 2 h 8 min
Overall bit rate mode : Variable
Overall bit rate : 48.9 Mb/s
Movie name : Jurassic World: Fallen Kingdom (2018) OT werecut PROD.
Encoded date : UTC 2018-09-09 04:15:01
Writing application : mkvmerge v24.0.0 ('Beyond The Pale') 64-bit
Writing library : libebml v1.3.6 + libmatroska v1.4.9

Video
ID : 1
Format : HEVC
Format/Info : High Efficiency Video Coding
Commercial name : HDR10
Format profile : Main 10@L5.1@High
Codec ID : V_MPEGH/ISO/HEVC
Duration : 2 h 8 min
Bit rate : 44.3 Mb/s
Width : 3 840 pixels
Height : 2 160 pixels
Display aspect ratio : 16:9
Frame rate mode : Constant
Frame rate : 23.976 (24000/1001) FPS
Color space : YUV
Chroma subsampling : 4:2:0 (Type 2)
Bit depth : 10 bits
Bits/(Pixel*Frame) : 0.223
Stream size : 39.7 GiB (91%)
Language : English
Default : Yes
Forced : No
Color range : Limited
Color primaries : BT.2020
Transfer characteristics : PQ
Matrix coefficients : BT.2020 non-constant
Mastering display color pri : Display P3
Mastering display luminance : min: 0.0001 cd/m2, max: 1000 cd/m2
Maximum Content Light Level : 1000 cd/m2
Maximum Frame-Average Light : 153 cd/m2

Audio #1
ID : 2
Format : AC-3
Format/Info : Audio Coding 3
Commercial name : Dolby Digital
Codec ID : A_AC3
Duration : 2 h 8 min
Bit rate mode : Constant
Bit rate : 384 kb/s
Channel(s) : 6 channels
Channel layout : L R C LFE Ls Rs
Sampling rate : 48.0 kHz
Frame rate : 31.250 FPS (1536 SPF)
Bit depth : 16 bits
Compression mode : Lossy
Stream size : 352 MiB (1%)
Title : iTunes
Language : Russian
Service kind : Complete Main
Default : Yes
Forced : Yes

Audio #2
ID : 3
Format : DTS XLL X
Format/Info : Digital Theater Systems
Commercial name : DTS-HD Master Audio
Codec ID : A_DTS
Duration : 2 h 8 min
Bit rate mode : Variable
Bit rate : 4 231 kb/s
Channel(s) : 8 channels
Channel(s)_Original : Object Based
Channel layout : Object Based
Sampling rate : 48.0 kHz
Frame rate : 93.750 FPS (512 SPF)
Bit depth : 24 bits
Stream size : 3.79 GiB (9%)
Language : English
Default : No
Forced : No

Text #1
ID : 4
Format : UTF-8
Codec ID : S_TEXT/UTF8
Codec ID/Info : UTF-8 Plain Text
Duration : 1 h 56 min
Bit rate : 73 b/s
Count of elements : 1724
Stream size : 62.7 KiB (0%)
Title : Full
Language : Russian
Default : No
Forced : No

Text #2
ID : 5
Format : UTF-8
Codec ID : S_TEXT/UTF8
Codec ID/Info : UTF-8 Plain Text
Duration : 2 h 7 min
Bit rate : 48 b/s
Count of elements : 1771
Stream size : 45.4 KiB (0%)
Title : SDH
Language : English
Default : No
Forced : No

Menu
00:00:00.000 : en:00:00:00.000
00:07:13.224 : en:00:07:13.224
00:12:01.554 : en:00:12:01.554
00:17:17.745 : en:00:17:17.745
00:21:17.193 : en:00:21:17.193
00:28:49.811 : en:00:28:49.811
00:35:04.686 : en:00:35:04.686
00:40:51.574 : en:00:40:51.574
00:46:32.498 : en:00:46:32.498
00:52:04.997 : en:00:52:04.997
01:00:59.197 : en:01:00:59.197
01:06:50.256 : en:01:06:50.256
01:11:07.638 : en:01:11:07.638
01:17:21.095 : en:01:17:21.095
01:26:55.210 : en:01:26:55.210
01:33:01.493 : en:01:33:01.493
01:42:55.878 : en:01:42:55.878
01:50:01.553 : en:01:50:01.553
01:54:56.223 : en:01:54:56.223
01:58:37.986 : en:01:58:37.



Скриншоты:
[+] Всего файлов в раздаче - 1:
Jurassic.World.Fallen.Kingdom.2018.bdremuX.216Op.werecut.PROD.mkv43.81 GB

Текущая раздача:
ДатаКомментарии    РазмерПиры
2018-09-10 U Мир Юрского периода 2 / Jurassic World: Fallen Kingdom (2018) UHD BDRemux 2160p | 4K | HDR | D 43.81 GB ↑ 110 ↓ 83

Показать еще раздачи по запросу юрского:
2018-09-17 U Мир Юрского периода 2 / Jurassic World: Fallen Kingdom (2018) BDRip 720p от Scarabey | iTunes 4.20 GB ↑ 49 ↓ 15
2018-09-14 U Мир Юрского периода 2 / Jurassic World: Fallen Kingdom (2018) BDRip-AVC от New-Team | D 2.80 GB ↑ 81 ↓ 31
2018-09-14 U Мир Юрского периода 2 / Jurassic World: Fallen Kingdom (2018) BDRip от ExKinoRay | iTunes 2.13 GB ↑ 96 ↓ 37
2018-09-14 U Мир Юрского периода 2 / Jurassic World: Fallen Kingdom (2018) BDRip-AVC от New-Team | D 1.48 GB ↑ 38 ↓ 10
2018-09-14 U Мир Юрского периода 2 / Jurassic World: Fallen Kingdom (2018) BDRip от ExKinoRay | iTunes 1.46 GB ↑ 48 ↓ 15
2018-09-13 U Мир Юрского периода 2 / Jurassic World: Fallen Kingdom (2018) BDRip-AVC от potroks | iTunes 2.85 GB ↑ 56 ↓ 23
2018-09-13 U Мир Юрского периода 2 / Jurassic World: Fallen Kingdom (2018) BDRip 1080p от qqss44 & MegaPeer | iTunes 7.51 GB ↑ 154 ↓ 112

Отзывы
Зарегистрируйтесь чтобы добавить комментарий.
Обратная связь
Copyleft ©