↑↓Torrent.by
Поиск
Логин: Регистрация
Пароль: Восстановить пароль
Загрузка...

Девушка в тумане / La ragazza nella nebbia (2017) BDRip-AVC от OlLanDGroup | iTunes

Скачать devushka-v-tumane-la-ragazza-nella-nebbia-2017-bdrip-avc-ot-ollandgroup-itunes.torrent
U Магнитная ссылка Размер: 1.40 GB Раздают: 69 Качают: 25 Добавлен: 2018-09-10 07:19:04
Девушка в тумане / La ragazza nella nebbia (2017) BDRip-AVC от OlLanDGroup | iTunes

Девушка в тумане / La ragazza nella nebbia

Год выпуска: 2017
Страна: Италия, Германия, Франция
Производство: Colorado Film Production
Жанр:  Триллер, криминал, экранизация

Режиссёр: Донато Карризи
В ролях: Тони Сервилло, Жан Рено, Алессио Бони, Лоренцо Рикельми, Галатеа Ранци, Микела Ческон, Лукреция Гидоне, Даниэла Пьяцца, Якопо Ольмо Антинори, Марина Оккьонеро

Перевод: Дублированный | [iTunes]
Субтитры: Русские (полные), Английские (полные)
Реклама: Отсутствует

Описание: Холодной зимней ночью психиатра Аугусто Флореса срочно вызывают на работу, чтобы обследовать попавшего в аварию инспектора Фогеля. Инспектор ничего не помнит, на месте аварии ничто не указывает на ее причину и на ее жертв, однако рубашка Фогеля в пятнах свежей крови, и эта кровь не его. В ходе беседы начинает восстанавливаться цепь невероятных событий, начавшихся месяц назад.

Затерянный в Альпах сонный городок, рождественский вечер, туман. 16-летняя девушка Анна Лу, выйдя из дома, до празднично украшенной церкви так и не дошла. Нет ни тела жертвы, ни каких-либо следов борьбы, ни свидетелей — ничего. Вскоре в городе появляется инспектор Фогель, звезда сыска, специалист по поимке маньяков и серийных убийц…

Качество: BDRip-AVC | BDRemux | Девушка в тумане / La ragazza nella nebbia (2017) BDRemux 1080p | iTunes
Продолжительность: 02:08:18

Формат: MKV
Видео кодек: MPEG-4 AVC
Аудио кодек: AC3
Видео: 976x408 (2.40:1), 24,000 fps, x264 ~1 180 kbps avg, 0.123 bit/pixel
Аудио #1: 48 kHz, AC3 Dolby Digital, 3/2 (L,C,R,l,r) + LFE ch, ~384.00 kbps avg | RUS (iTunes)

Дата премьеры (мир): 26 октября 2017
Дата премьеры (РФ): 25 января 2018, «Cinema Prestige»
Цифровой релиз:

Релиз: Rip by:


[+] MediaInfo

Общее
Уникальный идентификатор                 : 294366126195037001405081237960659699634 (0xDD74DA8C6D088D71A6F69030D83A07B2)
Полное имя                               : F:OlLanDGroupLa.Ragazza.Nella.Nebbia.2017.BDRip(AVC).OlLanDGroup.mkv
Формат                                   : Matroska
Версия формата                           : Version 4 / Version 2
Размер файла                             : 1,40 Гбайт
Продолжительность                        : 2 ч. 8 м.
Общий поток                              : 1565 Кбит/сек
Название фильма                          : La ragazza nella nebbia.2017   #TorpedoUK#
Дата кодирования                         : UTC 2018-09-09 12:35:12
Программа кодирования                    : mkvmerge v25.0.0 ('Prog Noir') 64-bit
Библиотека кодирования                   : libebml v1.3.6 + libmatroska v1.4.9

Видео
Идентификатор                            : 1
Формат                                   : AVC
Формат/Информация                        : Advanced Video Codec
Профиль формата                          : High@L4.1
Параметр CABAC формата                   : Да
Параметр ReFrames формата                : 10 кадров
Идентификатор кодека                     : V_MPEG4/ISO/AVC
Продолжительность                        : 2 ч. 8 м.
Битрейт                                  : 1180 Кбит/сек
Ширина                                   : 976 пикселей
Высота                                   : 408 пикселей
Соотношение сторон                       : 2,40:1
Режим частоты кадров                     : Постоянный
Частота кадров                           : 24,000 кадра/сек
Цветовое пространство                    : YUV
Субдискретизация насыщенности            : 4:2:0
Битовая глубина                          : 8 бит
Тип развёртки                            : Прогрессивная
Бит/(Пиксели*Кадры)                      : 0.123
Размер потока                            : 1,06 Гбайт (75%)
Библиотека кодирования                   : x264 core 146 r2538 121396c
Настройки программы                      : cabac=1 / ref=10 / deblock=1:-3:-3 / analyse=0x3:0x113 / me=umh / subme=11 / psy=1 / psy_rd=0.99:0.04 / mixed_ref=1 / me_range=48 / chroma_me=1 / trellis=2 / 8x8dct=1 / cqm=0 / deadzone=21,11 / fast_pskip=1 / chroma_qp_offset=-3 / threads=6 / lookahead_threads=1 / sliced_threads=0 / nr=0 / decimate=1 / interlaced=0 / bluray_compat=0 / constrained_intra=0 / bframes=10 / b_pyramid=2 / b_adapt=2 / b_bias=0 / direct=3 / weightb=1 / open_gop=0 / weightp=2 / keyint=240 / keyint_min=24 / scenecut=40 / intra_refresh=0 / rc_lookahead=40 / rc=2pass / mbtree=1 / bitrate=1180 / ratetol=1.0 / qcomp=0.60 / qpmin=0 / qpmax=69 / qpstep=4 / cplxblur=20.0 / qblur=0.5 / vbv_maxrate=50000 / vbv_bufsize=62500 / nal_hrd=none / filler=0 / ip_ratio=1.40 / aq=1:1.00
Default                                  : Да
Forced                                   : Нет

Аудио
Идентификатор                            : 2
Формат                                   : AC-3
Формат/Информация                        : Audio Coding 3
Расширение режима                        : CM (complete main)
Параметр Endianness формата              : Big
Идентификатор кодека                     : A_AC3
Продолжительность                        : 2 ч. 8 м.
Вид битрейта                             : Постоянный
Битрейт                                  : 384 Кбит/сек
Каналы                                   : 6 каналов
Расположение каналов                     : Front: L C R, Side: L R, LFE
Частота                                  : 48,0 КГц
Частота кадров                           : 31,250 кадров/сек (1536 spf)
Битовая глубина                          : 16 бит
Метод сжатия                             : С потерями
Размер потока                            : 352 Мбайт (25%)
Заголовок                                : DUB | iTunes
Язык                                     : Russian
Default                                  : Да
Forced                                   : Нет

Текст #1
Идентификатор                            : 3
Формат                                   : UTF-8
Идентификатор кодека                     : S_TEXT/UTF8
Идентификатор кодека/Информация          : UTF-8 Plain Text
Продолжительность                        : 1 ч. 59 м.
Битрейт                                  : 77 бит/сек
Count of elements                        : 1086
Размер потока                            : 67,6 Кбайт (0%)
Заголовок                                : Full
Язык                                     : Russian
Default                                  : Нет
Forced                                   : Нет

Текст #2
Идентификатор                            : 4
Формат                                   : UTF-8
Идентификатор кодека                     : S_TEXT/UTF8
Идентификатор кодека/Информация          : UTF-8 Plain Text
Продолжительность                        : 1 ч. 59 м.
Битрейт                                  : 45 бит/сек
Count of elements                        : 1085
Размер потока                            : 39,9 Кбайт (0%)
Заголовок                                : Full
Язык                                     : English
Default                                  : Нет
Forced                                   : Нет

Меню
00:00:00.000                             : en:Chapter 01
00:06:17.875                             : en:Chapter 02
00:15:48.041                             : en:Chapter 03
00:22:44.500                             : en:Chapter 04
00:31:22.083                             : en:Chapter 05
00:39:51.750                             : en:Chapter 06
00:47:44.416                             : en:Chapter 07
00:54:36.416                             : en:Chapter 08
01:01:11.750                             : en:Chapter 09
01:11:32.083                             : en:Chapter 10
01:18:15.791                             : en:Chapter 11
01:27:31.708                             : en:Chapter 12
01:38:13.875                             : en:Chapter 13
01:47:45.541                             : en:Chapter 14
01:57:28.083                             : en:Chapter 15



Скриншоты:
[+] Всего файлов в раздаче - 1:
La.Ragazza.Nella.Nebbia.2017.BDRip(AVC).OlLanDGroup.mkv1.40 GB

Текущая раздача:
ДатаКомментарии    РазмерПиры
2018-09-10 U Девушка в тумане / La ragazza nella nebbia (2017) BDRip-AVC от OlLanDGroup | iTunes 1.40 GB ↑ 69 ↓ 25

Показать еще раздачи по запросу девушка:
2018-08-07 U Девушка в ящике / Girl in the Box (2016) WEB-DLRip | L1 1.47 GB ↑ 26 ↓ 16
2018-08-07 U Девушка в ящике / Girl in the Box (2016) WEB-DL 720р | L1 2.39 GB ↑ 36 ↓ 7
2018-08-07 U Девушка в ящике / Girl in the Box (2016) WEB-DL 1080р | L1 6.02 GB ↑ 27 ↓ 3
2018-08-04 U Девушка в ящике / Girl in the Box (2016) WEBRip | L1 707.09 MB ↑ 100 ↓ 26
2018-07-23 U Девушка из Монако / La fille de Monaco (2008) DVDRip-AVC от ExKinoRay | D 1.66 GB ↑ 44 ↓ 17
2018-07-18 U Девушка в цементе / Lady in Cement (1968) BDRip от Koenig | P 1.45 GB ↑ 88 ↓ 15
2018-05-04 U Девушка в тумане / La ragazza nella nebbia (2017) HDRip от Scarabey | iTunes 2.14 GB ↑ 79 ↓ 23

Отзывы
Зарегистрируйтесь чтобы добавить комментарий.
Обратная связь
Copyleft ©