↑↓Torrent.by
Поиск
Логин: Регистрация
Пароль: Восстановить пароль
Загрузка...

Плохая Монахиня / The Watcher / The Bad Nun (2018) DVDRip-AVC | L2

Скачать plohaya-monahinya-the-watcher-bad-nun-2018-dvdrip-avc-l2.torrent
U Магнитная ссылка Размер: 1.31 GB Раздают: 55 Качают: 8 Добавлен: 2018-09-10 07:19:22
Плохая Монахиня / The Watcher / The Bad Nun (2018) DVDRip-AVC | L2

Название: Плохая Монахиня
Оригинальное название: The Watcher / The Bad Nun
Год выхода: 2018
Жанр: Ужасы
Режиссер: Скотт Джеффри
В ролях: Люси Чаппель, Бекка Хирани, Пэтси Принц, Крис Кэй, Кассандра Френч, Тиффани-Эллен Робинсон, Мика Хокман, Брайсон Деккер, Томас Мейланд и другие
О фильме:
Фильм основан на реальных событиях. Аиша отправляется в одинокий дом посреди чащи в Кенте, который мама сняла ей на выходные, чтобы дочь посвятила время учёбе. Вечером к порогу дома Аишы приходит монахиня, и её личность раскрывается всё сильнее с наступлением ночи. Монахиня продолжает беспокоить девушку, заставляя сомневаться, всё ли в порядке с тихим домом, в котором она оказалась.

Страна: Великобритания, Proportion Productions
Продолжительность: 01:34:50
Перевод: Любительский (двухголосый закадровый) | HiWay Grope

Файл
Кодек: MPEG-4 AVC/x.264
Качество: DVDRip-AVC
Видео: 720x320, 23.976 fps, ~1589 kbps, 0.288 bit/pixel
Звук:
Аудио rus: AC3, 48 kHz, 6 ch, 384 Kbps
Субтитры: отсутствуют

Реклама: присутствует

Семпл

Релиз от: HiWay Grope


[+] MediaInfo:

General
Unique ID                                : 280026397335478967366688080371974333045 (0xD2AB1F549B03024B3D49C8E899CAE275)
Complete name                            : D:The.Bad.Nun.2018.DVDRip-AVC.HiWayGropeThe.Bad.Nun.2018.DVDRip-AVC.HiWayGrope.mkv
Format                                   : Matroska
Format version                           : Version 4 / Version 2
File size                                : 1.31 GiB
Duration                                 : 1 h 34 min
Overall bit rate                         : 1 975 kb/s
Encoded date                             : UTC 2018-09-09 13:18:01
Writing application                      : mkvmerge v25.0.0 ('Prog Noir') 64-bit
Writing library                          : libebml v1.3.6 + libmatroska v1.4.9

Video
ID                                       : 1
Format                                   : AVC
Format/Info                              : Advanced Video Codec
Format profile                           : Main@L3.1
Format settings                          : CABAC / 4 Ref Frames
Format settings, CABAC                   : Yes
Format settings, RefFrames               : 4 frames
Codec ID                                 : V_MPEG4/ISO/AVC
Duration                                 : 1 h 34 min
Bit rate                                 : 1 589 kb/s
Width                                    : 720 pixels
Height                                   : 320 pixels
Display aspect ratio                     : 2.25:1
Frame rate mode                          : Constant
Frame rate                               : 23.976 (24000/1001) FPS
Standard                                 : NTSC
Color space                              : YUV
Chroma subsampling                       : 4:2:0
Bit depth                                : 8 bits
Scan type                                : Progressive
Bits/(Pixel*Frame)                       : 0.288
Stream size                              : 1.05 GiB (80%)
Language                                 : English
Default                                  : Yes
Forced                                   : No
Color range                              : Limited
Color primaries                          : BT.601 NTSC
Transfer characteristics                 : BT.601
Matrix coefficients                      : BT.601

Audio
ID                                       : 2
Format                                   : AC-3
Format/Info                              : Audio Coding 3
Codec ID                                 : A_AC3
Duration                                 : 1 h 34 min
Bit rate mode                            : Constant
Bit rate                                 : 384 kb/s
Channel(s)                               : 6 channels
Channel positions                        : Front: L C R, Side: L R, LFE
Sampling rate                            : 48.0 kHz
Frame rate                               : 31.250 FPS (1536 SPF)
Bit depth                                : 16 bits
Compression mode                         : Lossy
Stream size                              : 260 MiB (19%)
Language                                 : Russian
Service kind                             : Complete Main
Default                                  : Yes
Forced                                   : No




Скриншоты:
[+] Всего файлов в раздаче - 1:
The.Bad.Nun.2018.DVDRip-AVC.HiWayGrope.mkv1.31 GB

Текущая раздача:
ДатаКомментарии    РазмерПиры
2018-09-10 U Плохая Монахиня / The Watcher / The Bad Nun (2018) DVDRip-AVC | L2 1.31 GB ↑ 55 ↓ 8

Показать еще раздачи по запросу плохая:
2018-04-22 U Плохая партия / The Bad Batch (2016) HDRip-AVC от ExKinoRay | Р 744.87 MB ↑ 48 ↓ 21
2018-04-21 U Плохая партия / The Bad Batch (2016) BDRip 720p | P 7.55 GB ↑ 55 ↓ 24
2017-12-31 U Плохая дочь [01-04 из 04] (2017) WEB-DLRip-AVC от Files-x 1К2.30 GB ↑ 125 ↓ 50
2017-12-31 U Плохая дочь [01-04 из 04] (2017) WEB-DLRip от Files-x 2.35 GB ↑ 64 ↓ 24
2017-12-30 U Плохая дочь [01х01-04 из 04] (2017) SATRip-AVC 2.17 GB ↑ 121 ↓ 5
2017-10-20 U Плохая кровь: Лягушка-оборотень / Bad Blood: The Movie (2016) WEBRip | L1 1.08 GB ↑ 58 ↓ 18
2017-08-01 U Плохая партия / The Bad Batch (2016) WEB-DLRip | L 1.56 GB ↑ 24 ↓ 16

Отзывы
Зарегистрируйтесь чтобы добавить комментарий.
Обратная связь
Copyleft ©