↑↓Torrent.by
Поиск
Логин: Регистрация
Пароль: Восстановить пароль
Загрузка...

Оранжевая любовь (2007) DVDRip

Скачать oranzhevaya-lyubov-2007-dvdrip.torrent
U Магнитная ссылка Размер: 1.46 GB Раздают: 36 Качают: 14 Добавлен: 2018-09-10 07:19:34
Оранжевая любовь (2007) DVDRip

Название: Оранжевая любовь
Оригинальное название: Orange love
Год выхода: 2007
Жанр: Драма, мелодрама
Режиссер: Алан Бадоев
В ролях: Алексей Чадов, Ольга Макеева, Алексей Вертинский, Вячеслав Бурлачко, Екатерина Кантор, Андрей Стрельцов, Дмитрий Малков, Галина Боженко

О фильме:
Герои Катя и Роман заперты в странной квартире в самом центре Киева. По условиям какой-то мистической игры они не должны выходить из квартиры до смерти ее хозяина, который находится в инвалидной коляске. Приз: эта квартира и около 200 тысяч евро. Но осенняя любовь как-то в один миг сменяется мыслью о… СПИДе.

Диктующий правила должен умереть именно от него. За окном революция, а Рома не может выйти из квартиры и увидеть через объектив происходящее. Единственная связь с внешним миром — письма. Их бросают под дверь. В одном из них результаты анализов, которые оба героя сдали в самом начале ленты. С раскрытием конверта, романтика испаряется мгновенно. Герои оказываются один на один с проблемой в замкнутом пространстве.

Выпущено: Украина / Orangelove LLC, Twinjoint International Films
Продолжительность: 01:20:05
Перевод: Русский (Оригинал)

Файл
Качество: DVDRip
Формат видео: AVI
Видео: 704x384 (1.83:1), 25 fps, XviD build 73 ~2257 kbps avg, 0.33 bit/pixel
Аудио: 48 kHz, AC3 Dolby Digital, 3/2 (L,C,R,l,r) + LFE ch, ~384 kbps
Формат субтитров: softsub (SRT)


[+] MediaInfo

Format                                   : AVI
Format/Info                              : Audio Video Interleave
File size                                : 1.46 GiB
Duration                                 : 1h 19mn
Overall bit rate                         : 2 651 Kbps
Movie name                               : Оранжевая любовь
Director                                 : derdevil13
Writing application                      : VirtualDubMod 1.5.10.3 | www.virtualdub-fr.org || (build 2550/release)

Video
ID                                       : 0
Format                                   : MPEG-4 Visual
Format profile                           : Advanced Simple@L5
Format settings, BVOP                    : 2
Format settings, QPel                    : No
Format settings, GMC                     : No warppoints
Format settings, Matrix                  : Custom
Codec ID                                 : XVID
Codec ID/Hint                            : XviD
Duration                                 : 1h 19mn
Bit rate                                 : 2 258 Kbps
Width                                    : 704 pixels
Height                                   : 384 pixels
Display aspect ratio                     : 1.85:1
Frame rate                               : 25.000 fps
Color space                              : YUV
Chroma subsampling                       : 4:2:0
Bit depth                                : 8 bits
Scan type                                : Progressive
Compression mode                         : Lossy
Bits/(Pixel*Frame)                       : 0.334
Stream size                              : 1.25 GiB (85%)
Writing library                          : XviD 73

Audio
ID                                       : 1
Format                                   : AC-3
Format/Info                              : Audio Coding 3
Mode extension                           : CM (complete main)
Format settings, Endianness              : Big
Codec ID                                 : 2000
Duration                                 : 1h 19mn
Bit rate mode                            : Constant
Bit rate                                 : 384 Kbps
Channel(s)                               : 6 channels
Channel positions                        : Front: L C R, Side: L R, LFE
Sampling rate                            : 48.0 KHz
Bit depth                                : 16 bits
Compression mode                         : Lossy
Stream size                              : 217 MiB (14%)
Alignment                                : Split accross interleaves
Interleave, duration                     : 40 ms (1.00 video frame)
Interleave, preload duration             : 500 ms



Скриншоты:
[+] Всего файлов в раздаче - 2:
Оранжевая любовь.avi1.46 GB
Оранжевая любовь.rus.srt32.30 kB

Текущая раздача:
ДатаКомментарии    РазмерПиры
2018-09-10 U Оранжевая любовь (2007) DVDRip 1.46 GB ↑ 36 ↓ 14

Похожие раздачи по запросу - оранжевая:
2018-07-15 U Александр Башибузук - Оранжевая страна 2. Фехтгенерал (2018) MP3 307.65 MB ↑ 73 ↓ 7

Отзывы
Зарегистрируйтесь чтобы добавить комментарий.
Обратная связь
Copyleft ©