↑↓Torrent.by
Поиск
Логин: Регистрация
Пароль: Восстановить пароль
Загрузка...

Пансион / Boarding School (2018) WEB-DLRip-AVC от ExKinoRay | HDRezka Studio

Скачать pansion-boarding-school-2018-web-dlrip-avc-ot-exkinoray-hdrezka-studio.torrent
U Магнитная ссылка Размер: 745.97 MB Раздают: 55 Качают: 7 Добавлен: 2018-09-10 07:20:00
Пансион / Boarding School (2018) WEB-DLRip-AVC от ExKinoRay | HDRezka Studio

Название: Пансион
Оригинальное название: Boarding School
Год выхода: 2018
Жанр:  Ужасы
Режиссер: Боаз Якин
В ролях: Люк Праель, Стерлинг Джеринс, Уилл Пэттон, Коби Джордж, Кадин Джордж, Николас Оливери, Саманта Мэтис, Роберт Джон Бёрк, Надя Александр, Люси Уолтерс

О фильме :
После смерти своей бабушки, Джейкоб стал одержим идеей во всём походить на неё. Из-за этого его родители были вынуждены отправить его в закрытую школу, где всё подчиняется лишь прихоти её загадочного и жестокого хозяина.

Страна: США
Студия: Farcaster Films,Gigantic Pictures,Maven Pictures
Продолжительность: 01:51:48
Перевод: Профессиональный (многоголосый, закадровый) | HDrezka Studio

Файл
Формат: MKV
Качество: WEB-DLRip-AVC
Видео: MPEG-4 AVC, 752x424, ~ 855 Кбит/с
Аудио:  AAC-HE, 2 ch, ~ 76 Кбит/с
Субтитры: Нет


[+] MI
Общее
Уникальный идентификатор : 214852910311902189214893940162870880782 (0xA1A32A551697F81CB57771B56A17AA0E)
Полное имя : D:MOVIESBoarding School.2018.ExKinoRay.mkv
Формат : Matroska
Версия формата : Version 4 / Version 2
Размер файла : 746 Мбайт
Продолжительность : 1 ч. 51 м.
Общий поток : 933 Кбит/сек
Дата кодирования : UTC 2018-09-09 05:49:09
Программа кодирования : mkvmerge v15.0.0 ('Duel with the Devil') 64-bit
Библиотека кодирования : libebml v1.3.5 + libmatroska v1.4.5

Видео
Идентификатор : 1
Формат : AVC
Формат/Информация : Advanced Video Codec
Профиль формата : High@L4.1
Параметр CABAC формата : Да
Параметр RefFrames формата : 12 кадров
Идентификатор кодека : V_MPEG4/ISO/AVC
Продолжительность : 1 ч. 51 м.
Битрейт : 855 Кбит/сек
Ширина : 752 пикселя
Высота : 424 пикселя
Соотношение сторон : 16:9
Режим частоты кадров : Постоянный
Частота кадров : 23,976 (24000/1001) кадра/сек
Цветовое пространство : YUV
Субдискретизация насыщенности : 4:2:0
Битовая глубина : 8 бит
Тип развёртки : Прогрессивная
Бит/(Пиксели*Кадры) : 0.112
Размер потока : 684 Мбайт (92%)
Библиотека кодирования : x264 core 152 r2851kMod ba24899
Настройки программы : cabac=1 / ref=12 / deblock=1:-3:-3 / analyse=0x3:0x133 / me=umh / subme=10 / psy=1 / fade_compensate=0.00 / psy_rd=1.00:0.14 / mixed_ref=1 / me_range=32 / chroma_me=1 / trellis=2 / 8x8dct=1 / cqm=0 / deadzone=21,11 / fast_pskip=0 / chroma_qp_offset=-3 / threads=6 / lookahead_threads=1 / sliced_threads=0 / nr=0 / decimate=0 / interlaced=0 / bluray_compat=0 / constrained_intra=0 / bframes=11 / b_pyramid=2 / b_adapt=2 / b_bias=0 / direct=3 / weightb=1 / open_gop=0 / weightp=2 / keyint=240 / keyint_min=23 / scenecut=40 / intra_refresh=0 / rc_lookahead=40 / rc=2pass / mbtree=1 / bitrate=855 / ratetol=1.0 / qcomp=0.60 / qpmin=0 / qpmax=69 / qpstep=4 / cplxblur=20.0 / qblur=0.5 / ip_ratio=1.40 / aq=3:1.00
Default : Да
Forced : Нет

Аудио
Идентификатор : 2
Формат : AAC
Формат/Информация : Advanced Audio Codec
Профиль формата : HE-AAC / LC
Идентификатор кодека : A_AAC
Продолжительность : 1 ч. 51 м.
Битрейт : 76,0 Кбит/сек
Каналы : 2 канала
Расположение каналов : Front: L R
Частота : 48,0 КГц / 24,0 КГц
Частота кадров : 23,438 кадра/сек (1024 SPF)
Метод сжатия : С потерями
Задержка видео : 31 мс.
Размер потока : 60,8 Мбайт (8%)
Язык : Russian
Default : Да
Forced : Нет

Меню
00:00:00.000 : en:1
00:07:19.397 : en:2
00:13:32.269 : en:3
00:21:06.264 : en:4
00:28:05.600 : en:5
00:33:59.370 : en:6
00:43:18.595 : en:7
00:47:08.700 : en:8
00:56:29.635 : en:9
01:02:31.330 : en:10
01:10:25.387 : en:11
01:16:08.104 : en:12
01:20:40.042 : en:13
01:32:23.787 : en:14
01:39:43.977 : en:15
01:42:33.730 : en:16



Скриншоты:
[+] Всего файлов в раздаче - 1:
Boarding School.2018.ExKinoRay.mkv745.97 MB

Текущая раздача:
ДатаКомментарии    РазмерПиры
2018-09-10 U Пансион / Boarding School (2018) WEB-DLRip-AVC от ExKinoRay | HDRezka Studio 745.97 MB ↑ 55 ↓ 7

Похожие раздачи по запросу - пансион:
2018-09-08 U Пансион / Boarding School (2018) WEB-DL 1080p | HDrezka Studio 4.37 GB ↑ 162 ↓ 53
2017-06-21 U Полный пансион / Pension complète (2015) WEB-DLRip | P 1.45 GB ↑ 81 ↓ 25
2017-06-19 U Полный пансион / Pension complète (2015) WEB-DLRip-AVC от ImperiaFilm | P 741.14 MB ↑ 94 ↓ 26

Отзывы
Зарегистрируйтесь чтобы добавить комментарий.
Обратная связь
Copyleft ©