↑↓Torrent.by
Поиск
Логин: Регистрация
Пароль: Восстановить пароль
Загрузка...

Мир Юрского периода 2 / Jurassic World: Fallen Kingdom (2018) HDRip-AVC | D | iTunes

Скачать mir-yurskogo-perioda-2-jurassic-world-fallen-kingdom-2018-hdrip-avc-d-itunes.torrent
U Магнитная ссылка Размер: 747.28 MB Раздают: 60 Качают: 16 Добавлен: 2018-09-10 11:28:26
Мир Юрского периода 2 / Jurassic World: Fallen Kingdom (2018) HDRip-AVC | D | iTunes

«Жизнь нельзя остановить»

Название: Мир Юрского периода 2
Оригинальное название: Jurassic World: Fallen Kingdom
Год выхода: 2018
Жанр: Фантастика, боевик, приключения
Режиссер: Хуан Антонио Байона
В ролях: Брайс Даллас Ховард, Крис Прэтт, Джефф Голдблюм, Тед Левайн, Джеймс Кромуэлл, Тоби Джонс, Б. Д. Вонг, Рейф Сполл, Даниэлла Пинеда, Джеральдин Чаплин

О фильме: На острове Исла-Нублар, где не так давно располагался парк развлечений с динозаврами, правит бал дикая природа. Но без людей все далеко не так спокойно, как могло бы показаться. Основатели парка приняли решение построить его, несмотря на активный вулкан, расположенный в сердце острова. Вулкан пробудился и рискует потопить остров в лаве. Управляющая парка Клэр Дэринг уговаривает дрессировщика Оуэна Грэди вернуться в бывший парк и спасти динозавров от неминуемой гибели.

Страна: США, Испания
Студия: Universal Pictures
Продолжительность: 02:08:17
Перевод: Профессиональный (полное дублирование) iTunes

Файл
Кодек: x264
Качество: HDRip-AVC (Исх | BDRip (1080p))
Видео: 768x320 (2.40:1), 740 Kbps, 23.976 fps
Звук: HE-AAC, 72 Kbps, 48 KHz, 2 channels


[+] MediaInfo▼
Общее
Уникальный идентификатор                 : 233159190700185545338694470100256031597 (0xAF68D3A3C813AC4AAFF40F379E8C036D)
Полное имя                               : D:Jurassic.World.Fallen.Kingdom.(2018).HDRip-AVC.mkv
Формат                                   : Matroska
Версия формата                           : Version 4
Размер файла                             : 747 Мбайт
Продолжительность                        : 2 ч. 8 м.
Общий поток                              : 814 Кбит/сек
Название фильма                          : -=rip by Sergei91=-
Дата кодирования                         : UTC 2018-09-09 10:02:37
Программа кодирования                    : mkvmerge v8.3.0 ('Over the Horizon') 32bit
Библиотека кодирования                   : libebml v1.3.1 + libmatroska v1.4.2
Обложка                                  : Yes
Attachments                              : cover.jpg

Видео
Идентификатор                            : 1
Формат                                   : AVC
Формат/Информация                        : Advanced Video Codec
Профиль формата                          : High@L4.1
Настройки формата                        : CABAC / 12 Ref Frames
Параметр CABAC формата                   : Да
Параметр RefFrames формата               : 12 кадров
Идентификатор кодека                     : V_MPEG4/ISO/AVC
Продолжительность                        : 2 ч. 8 м.
Битрейт                                  : 740 Кбит/сек
Ширина                                   : 768 пикселей
Высота                                   : 320 пикселей
Соотношение сторон                       : 2,40:1
Режим частоты кадров                     : Постоянный
Частота кадров                           : 23,976 (24000/1001) кадра/сек
Цветовое пространство                    : YUV
Субдискретизация насыщенности            : 4:2:0
Битовая глубина                          : 8 бит
Тип развёртки                            : Прогрессивная
Бит/(Пиксели*Кадры)                      : 0.126
Размер потока                            : 679 Мбайт (91%)
Библиотека кодирования                   : x264 core 148 r2638 7599210
Настройки программы                      : cabac=1 / ref=12 / deblock=1:-1:-1 / analyse=0x3:0x113 / me=umh / subme=10 / psy=1 / psy_rd=1.00:0.15 / mixed_ref=1 / me_range=32 / chroma_me=1 / trellis=2 / 8x8dct=1 / cqm=0 / deadzone=21,11 / fast_pskip=1 / chroma_qp_offset=-3 / threads=2 / lookahead_threads=1 / sliced_threads=0 / nr=0 / decimate=0 / interlaced=0 / bluray_compat=0 / constrained_intra=0 / bframes=10 / b_pyramid=2 / b_adapt=2 / b_bias=0 / direct=3 / weightb=1 / open_gop=0 / weightp=2 / keyint=240 / keyint_min=23 / scenecut=40 / intra_refresh=0 / rc_lookahead=40 / rc=2pass / mbtree=0 / bitrate=740 / ratetol=1.0 / qcomp=0.60 / qpmin=0 / qpmax=69 / qpstep=4 / cplxblur=20.0 / qblur=0.5 / vbv_maxrate=14000 / vbv_bufsize=14000 / nal_hrd=none / filler=0 / ip_ratio=1.40 / pb_ratio=1.30 / aq=1:1.00
Язык                                     : English
Default                                  : Да
Forced                                   : Нет

Аудио
Идентификатор                            : 2
Формат                                   : AAC LC SBR
Формат/Информация                        : Advanced Audio Codec Low Complexity with Spectral Band Replication
Коммерческое название                    : HE-AAC
Настройки формата                        : Explicit
Идентификатор кодека                     : A_AAC-2
Продолжительность                        : 2 ч. 8 м.
Битрейт                                  : 72,0 Кбит/сек
Каналы                                   : 2 канала
Channel layout                           : L R
Частота                                  : 48,0 КГц
Частота кадров                           : 23,438 кадра/сек (2048 SPF)
Метод сжатия                             : С потерями
Задержка видео                           : 31 мс.
Размер потока                            : 66,1 Мбайт (9%)
Заголовок                                : Дубляж (72kbps)
Язык                                     : Russian
Default                                  : Да
Forced                                   : Нет

Текст #1
Идентификатор                            : 3
Формат                                   : UTF-8
Идентификатор кодека                     : S_TEXT/UTF8
Идентификатор кодека/Информация          : UTF-8 Plain Text
Продолжительность                        : 1 ч. 56 м.
Битрейт                                  : 73 бит/сек
ElementCount                             : 1724
Размер потока                            : 62,7 Кбайт (0%)
Заголовок                                : Full
Язык                                     : Russian
Default                                  : Нет
Forced                                   : Нет

Текст #2
Идентификатор                            : 4
Формат                                   : UTF-8
Идентификатор кодека                     : S_TEXT/UTF8
Идентификатор кодека/Информация          : UTF-8 Plain Text
Продолжительность                        : 2 ч. 7 м.
Битрейт                                  : 48 бит/сек
ElementCount                             : 1771
Размер потока                            : 45,4 Кбайт (0%)
Заголовок                                : SDH
Язык                                     : English
Default                                  : Нет
Forced                                   : Нет

Меню
00:00:00.000                             : en:00:00:00.000
00:07:13.224                             : en:00:07:13.224
00:12:01.554                             : en:00:12:01.554
00:17:17.745                             : en:00:17:17.745
00:21:17.193                             : en:00:21:17.193
00:28:49.811                             : en:00:28:49.811
00:35:04.686                             : en:00:35:04.686
00:40:51.574                             : en:00:40:51.574
00:46:32.498                             : en:00:46:32.498
00:52:04.997                             : en:00:52:04.997
01:00:59.197                             : en:01:00:59.197
01:06:50.256                             : en:01:06:50.256
01:11:07.638                             : en:01:11:07.638
01:17:21.095                             : en:01:17:21.095
01:26:55.210                             : en:01:26:55.210
01:33:01.493                             : en:01:33:01.493
01:42:55.878                             : en:01:42:55.878
01:50:01.553                             : en:01:50:01.553
01:54:56.223                             : en:01:54:56.223
01:58:37.986                             : en:01:58:37.986




[+] Log x264▼
avs [info]: 768x320p 1:1 @ 2500000/104271 fps (cfr)
x264 [info]: using SAR=1/1
x264 [info]: using cpu capabilities: MMX2 SSE2Fast LZCNT
x264 [info]: profile High, level 4.1

x264 [info]: frame I:1629  Avg QP:15.61  size: 30540
x264 [info]: frame P:42535 Avg QP:19.71  size:  8533
x264 [info]: frame B:140395 Avg QP:21.39  size:  2133
x264 [info]: consecutive B-frames:  3.0%  3.6%  9.9% 21.6% 16.7% 34.4%  5.2%  0.9%  2.1%  2.3%  0.2%
x264 [info]: mb I  I16..4: 10.5% 63.3% 26.2%
x264 [info]: mb P  I16..4:  2.3% 10.8%  1.7%  P16..4: 39.0% 23.5% 12.1%  0.0%  0.0%    skip:10.7%
x264 [info]: mb B  I16..4:  0.2%  0.7%  0.1%  B16..8: 36.8%  9.1%  2.2%  direct: 3.5%  skip:47.3%  L0:41.1% L1:46.4% BI:12.5%
x264 [info]: 8x8 transform intra:71.2% inter:60.3%
x264 [info]: direct mvs  spatial:94.2% temporal:5.8%
x264 [info]: coded y,uvDC,uvAC intra: 75.5% 71.1% 45.2% inter: 14.8% 11.4% 5.4%
x264 [info]: i16 v,h,dc,p: 44% 13% 11% 32%
x264 [info]: i8 v,h,dc,ddl,ddr,vr,hd,vl,hu: 12% 10% 11%  8% 11% 11% 12% 11% 14%
x264 [info]: i4 v,h,dc,ddl,ddr,vr,hd,vl,hu: 16% 11%  6%  8% 13% 12% 12% 10% 12%
x264 [info]: i8c dc,h,v,p: 38% 27% 20% 15%
x264 [info]: Weighted P-Frames: Y:6.7% UV:3.0%
x264 [info]: ref P L0: 53.0% 11.7% 15.0%  5.4%  3.9%  2.9%  2.4%  1.4%  1.2%  1.0%  0.9%  0.9%  0.2%  0.0%
x264 [info]: ref B L0: 76.7% 11.3%  4.9%  2.2%  1.5%  1.1%  0.9%  0.5%  0.5%  0.3%  0.2%
x264 [info]: ref B L1: 92.7%  7.3%
x264 [info]: kb/s:740.09



Скриншоты:
[+] Всего файлов в раздаче - 1:
Jurassic.World.Fallen.Kingdom.(2018).HDRip-AVC.mkv747.28 MB

Текущая раздача:
ДатаКомментарии    РазмерПиры
2018-09-10 U Мир Юрского периода 2 / Jurassic World: Fallen Kingdom (2018) HDRip-AVC | D | iTunes 1 К 747.28 MB ↑ 60 ↓ 16

Показать еще раздачи по запросу юрского:
2018-09-17 U Мир Юрского периода 2 / Jurassic World: Fallen Kingdom (2018) BDRip 720p от Scarabey | iTunes 4.20 GB ↑ 49 ↓ 15
2018-09-14 U Мир Юрского периода 2 / Jurassic World: Fallen Kingdom (2018) BDRip-AVC от New-Team | D 2.80 GB ↑ 81 ↓ 31
2018-09-14 U Мир Юрского периода 2 / Jurassic World: Fallen Kingdom (2018) BDRip от ExKinoRay | iTunes 2.13 GB ↑ 97 ↓ 37
2018-09-14 U Мир Юрского периода 2 / Jurassic World: Fallen Kingdom (2018) BDRip-AVC от New-Team | D 1.48 GB ↑ 38 ↓ 10
2018-09-14 U Мир Юрского периода 2 / Jurassic World: Fallen Kingdom (2018) BDRip от ExKinoRay | iTunes 1.46 GB ↑ 49 ↓ 15
2018-09-13 U Мир Юрского периода 2 / Jurassic World: Fallen Kingdom (2018) BDRip-AVC от potroks | iTunes 2.85 GB ↑ 57 ↓ 23
2018-09-13 U Мир Юрского периода 2 / Jurassic World: Fallen Kingdom (2018) BDRip 1080p от qqss44 & MegaPeer | iTunes 7.51 GB ↑ 154 ↓ 112

Отзывы
carerras007
Спасибо большое за фильм!!!

Зарегистрируйтесь чтобы добавить комментарий.
Обратная связь
Copyleft ©