↑↓Torrent.by
Поиск
Логин: Регистрация
Пароль: Восстановить пароль
Загрузка...

Девица / Damsel (2018) WEBRip | L2

Скачать devica-damsel-2018-webrip-l2.torrent
U Магнитная ссылка Размер: 1.48 GB Раздают: 158 Качают: 48 Добавлен: 2018-09-11 07:42:29
Девица / Damsel (2018) WEBRip | L2

Название: Девица
Оригинальное название: Damsel
Год выхода: 2018
Жанр: Драма, комедия, вестерн
Режиссер: Дэвид Зеллнер, Нэйтан Зеллнер
В ролях: Роберт Паттинсон, Миа Васиковска, Дэвид Зеллнер, Нэйтан Зеллнер, Роберт Форстер, Джозеф Биллинджир, Морган Ланд, Рэй Келлехер, Робин Адамс, Гэри Брукинс и другие
О фильме:
Самуэль Алабастер - в меру нарциссичный педант с носовыми платочками и историями про похищенную негодяями невесту Пенелопу. Самуэль не умеет пить виски и даже войти в салун не может эффектно, запутавшись в ремне от гитары. Верный соратник ковбоя - Генри, выдающий себя за миссионера-проповедника. Когда-то посреди пустыни измученный жизнью пастор отдал ему потрепанную Библию и полное обмундирование священника. Проповеди Генри слушают разве что крабы - большую часть времени пастор валяется на пляже мертвецки пьяным. Да и девушку не нужно спасать от разбойников - Пенелопа метко стреляет из двустволки, умеет пользоваться динамитом, сама кого хочешь и спасет, и пристрелит.

Страна: США, Strophic Productions Limited
Продолжительность: 01:53:54
Перевод: Любительский (двухголосый закадровый) | HiWay Grope

Файл
Кодек: XviD
Качество: WEBRip
Видео: 720x304, 23.976 fps, ~1469 kbps avg, 0.28 bit/pixel
Звук:
Аудио rus: AC3, 48 kHz, 6 ch, 384 Kbps
Субтитры: отсутствуют

Реклама: присутствует

Семпл

Релиз от: HiWay Grope


[+] MediaInfo:

General
Complete name                            : D:Damsel.2018.WEBRip.HiWayGropeDamsel.2018.WEBRip.HiWayGrope.avi
Format                                   : AVI
Format/Info                              : Audio Video Interleave
File size                                : 1.48 GiB
Duration                                 : 1 h 53 min
Overall bit rate                         : 1 863 kb/s
Writing application                      : VirtualDubMod 1.5.10.3 (build 2550/release)
Writing library                          : VirtualDubMod build 2550/release

Video
ID                                       : 0
Format                                   : MPEG-4 Visual
Format profile                           : Simple@L5
Format settings                          : BVOP1
Format settings, BVOP                    : 1
Format settings, QPel                    : No
Format settings, GMC                     : No warppoints
Format settings, Matrix                  : Default (MPEG)
Codec ID                                 : XVID
Codec ID/Hint                            : XviD
Duration                                 : 1 h 53 min
Bit rate                                 : 1 470 kb/s
Width                                    : 720 pixels
Height                                   : 304 pixels
Display aspect ratio                     : 2.40:1
Frame rate                               : 23.976 (24000/1001) FPS
Color space                              : YUV
Chroma subsampling                       : 4:2:0
Bit depth                                : 8 bits
Scan type                                : Progressive
Compression mode                         : Lossy
Bits/(Pixel*Frame)                       : 0.280
Stream size                              : 1.17 GiB (79%)
Writing library                          : XviD 67

Audio
ID                                       : 1
Format                                   : AC-3
Format/Info                              : Audio Coding 3
Codec ID                                 : 2000
Duration                                 : 1 h 53 min
Bit rate mode                            : Constant
Bit rate                                 : 384 kb/s
Channel(s)                               : 6 channels
Channel positions                        : Front: L C R, Side: L R, LFE
Sampling rate                            : 48.0 kHz
Frame rate                               : 31.250 FPS (1536 SPF)
Bit depth                                : 16 bits
Compression mode                         : Lossy
Stream size                              : 313 MiB (21%)
Alignment                                : Split accross interleaves
Interleave, duration                     : 42  ms (1.00 video frame)
Interleave, preload duration             : 500  ms
Service kind                             : Complete Main




Скриншоты:
[+] Всего файлов в раздаче - 1:
Damsel.2018.WEBRip.HiWayGrope.avi1.48 GB

Текущая раздача:
ДатаКомментарии    РазмерПиры
2018-09-11 U Девица / Damsel (2018) WEBRip | L2 1.48 GB ↑ 158 ↓ 48

Похожие раздачи по запросу - девица:
2018-09-11 U Девица / Damsel (2018) WEBRip 720p | L2 2.65 GB ↑ 79 ↓ 18

Отзывы
Зарегистрируйтесь чтобы добавить комментарий.
Обратная связь
Copyleft ©