↑↓Torrent.by
Поиск
Логин: Регистрация
Пароль: Восстановить пароль
Загрузка...

Девица / Damsel (2018) WEBRip 720p | L2

Скачать devica-damsel-2018-webrip-720p-l2.torrent
U Магнитная ссылка Размер: 2.65 GB Раздают: 81 Качают: 18 Добавлен: 2018-09-11 07:43:02
Девица / Damsel (2018) WEBRip 720p | L2

Название: Девица
Оригинальное название: Damsel
Год выхода: 2018
Жанр: Драма, комедия, вестерн
Режиссер: Дэвид Зеллнер, Нэйтан Зеллнер
В ролях: Роберт Паттинсон, Миа Васиковска, Дэвид Зеллнер, Нэйтан Зеллнер, Роберт Форстер, Джозеф Биллинджир, Морган Ланд, Рэй Келлехер, Робин Адамс, Гэри Брукинс и другие
О фильме:
Самуэль Алабастер - в меру нарциссичный педант с носовыми платочками и историями про похищенную негодяями невесту Пенелопу. Самуэль не умеет пить виски и даже войти в салун не может эффектно, запутавшись в ремне от гитары. Верный соратник ковбоя - Генри, выдающий себя за миссионера-проповедника. Когда-то посреди пустыни измученный жизнью пастор отдал ему потрепанную Библию и полное обмундирование священника. Проповеди Генри слушают разве что крабы - большую часть времени пастор валяется на пляже мертвецки пьяным. Да и девушку не нужно спасать от разбойников - Пенелопа метко стреляет из двустволки, умеет пользоваться динамитом, сама кого хочешь и спасет, и пристрелит.

Страна: США, Strophic Productions Limited
Продолжительность: 01:53:54
Перевод: Любительский (двухголосый закадровый) | HiWay Grope

Файл
Кодек: MPEG-4 AVC/x.264
Качество: WEBRip 720p
Видео: 1280x530, 23.976 fps, ~2947 kbps, 0.181 bit/pixel
Звук:
Аудио rus: AC3, 48 kHz, 6 ch, 384 Kbps
Субтитры: отсутствуют

Реклама: присутствует

Семпл

Релиз от: HiWay Grope


[+] MediaInfo:

General
Unique ID                                : 283616497698253012269382291179742137618 (0xD55E8CF1C1F94A50E89E4349B1DF8D12)
Complete name                            : D:Damsel.2018.720p.WEBRip.HiWayGropeDamsel.2018.720p.WEBRip.HiWayGrope.mkv
Format                                   : Matroska
Format version                           : Version 4 / Version 2
File size                                : 2.65 GiB
Duration                                 : 1 h 53 min
Overall bit rate                         : 3 333 kb/s
Encoded date                             : UTC 2018-09-10 13:15:05
Writing application                      : mkvmerge v25.0.0 ('Prog Noir') 64-bit
Writing library                          : libebml v1.3.6 + libmatroska v1.4.9

Video
ID                                       : 1
Format                                   : AVC
Format/Info                              : Advanced Video Codec
Format profile                           : Main@L3.1
Format settings                          : CABAC / 4 Ref Frames
Format settings, CABAC                   : Yes
Format settings, RefFrames               : 4 frames
Codec ID                                 : V_MPEG4/ISO/AVC
Duration                                 : 1 h 53 min
Bit rate                                 : 2 947 kb/s
Width                                    : 1 280 pixels
Height                                   : 530 pixels
Display aspect ratio                     : 2.40:1
Frame rate mode                          : Constant
Frame rate                               : 23.976 (24000/1001) FPS
Standard                                 : NTSC
Color space                              : YUV
Chroma subsampling                       : 4:2:0
Bit depth                                : 8 bits
Scan type                                : Progressive
Bits/(Pixel*Frame)                       : 0.181
Stream size                              : 2.34 GiB (88%)
Language                                 : English
Default                                  : Yes
Forced                                   : No
Color range                              : Limited
Color primaries                          : BT.601 NTSC
Transfer characteristics                 : BT.601
Matrix coefficients                      : BT.601

Audio
ID                                       : 2
Format                                   : AC-3
Format/Info                              : Audio Coding 3
Codec ID                                 : A_AC3
Duration                                 : 1 h 53 min
Bit rate mode                            : Constant
Bit rate                                 : 384 kb/s
Channel(s)                               : 6 channels
Channel positions                        : Front: L C R, Side: L R, LFE
Sampling rate                            : 48.0 kHz
Frame rate                               : 31.250 FPS (1536 SPF)
Bit depth                                : 16 bits
Compression mode                         : Lossy
Stream size                              : 313 MiB (12%)
Language                                 : Russian
Service kind                             : Complete Main
Default                                  : Yes
Forced                                   : No




Скриншоты:
[+] Всего файлов в раздаче - 1:
Damsel.2018.720p.WEBRip.HiWayGrope.mkv2.65 GB

Текущая раздача:
ДатаКомментарии    РазмерПиры
2018-09-11 U Девица / Damsel (2018) WEBRip 720p | L2 2.65 GB ↑ 81 ↓ 18

Похожие раздачи по запросу - девица:
2018-10-11 U Девица / Damsel (2018) WEB-DLRip от MegaPeer | HDRezka Studio 1.30 GB ↑ 131 ↓ 23
2018-10-11 U Девица / Damsel (2018) WEB-DL 720p от OlLanDGroup | HDRezka Studio 3.63 GB ↑ 81 ↓ 40
2018-09-24 U Девица / Девица в беде / Damsell (2018) WEBRip | L1 807.52 MB ↑ 67 ↓ 22
2018-09-11 U Девица / Damsel (2018) WEBRip | L2 1.48 GB ↑ 196 ↓ 51

Отзывы
Зарегистрируйтесь чтобы добавить комментарий.
Обратная связь
Copyleft ©