↑↓Torrent.by
Поиск
Логин: Регистрация
Пароль: Восстановить пароль
Загрузка...

Идеальный дом / Ideal Home (2018) BDRip | HDrezka Studio

Скачать idealnyy-dom-ideal-home-2018-bdrip-hdrezka-studio.torrent
U Магнитная ссылка Размер: 1.46 GB Раздают: 48 Качают: 14 Добавлен: 2018-09-11 08:53:08
Идеальный дом / Ideal Home (2018) BDRip | HDrezka Studio

Идеальный дом / Ideal Home

Страна: США
Производство: Remstar Studios, Mustard & Co, Lucky Monkey Pictures, Baby Cow Films
Год выпуска: 2018
Жанр:  драма, комедия
Продолжительность: 01:31:18

Режиссер: Эндрю Флеминг
Автор сценария: Эндрю Флеминг

В ролях: Пол Радд, Кейт Уолш, Элисон Пилл, Джейк Макдорман, Стив Куган, Сара Минник, Лора Каннингэм, Джесси Люкен, Фрэнсис Ли МакКейн

Описание: Эрасмус и Пол живут весёлой и беззаботной жизнью, пока на пороге не возникает 10-летний парень — по его собственному заверению, внук Эрасмуса. Привычному существованию приходит конец...

Перевод: Профессиональный (многоголосый, закадровый) | HDrezka Studio
Субтитры: отдельными файлами | русские, английские

Качество: BDRip | исходник Ideal.Home.2018.COMPLETE.BLURAY-VEXHD
Формат: AVI
Видео кодек: XviD
Аудио кодек: AC3
Видео: 720x304 (2.35:1), 23.976 fps, XviD build 67 ~1 891 kbps avg, 0.360 bit/pixel
Аудио №1: 48.0 kHz, AC3 Dolby Digital, 2/0 (L,R) ch, ~192 kbps | RUS
Аудио №2: 48.0 kHz, AC3 Dolby Digital, 2/0 (L,R) ch, ~192 kbps | ENG
Формат субтитров: *SRT

Дата премьеры (мир): 15 февраля 2018

Семпл

Релиз от: dalemake


[+] Media Info
General
Полное имя                               : Idealnyi_dom_2018_BDRip_MVO_by_Dalemake.avi
Формат                                   : AVI
Формат/Информация                        : Audio Video Interleave
Размер файла                             : 1,46 Гбайт
Продолжительность                        : 1 ч. 31 м.
Общий поток                              : 2289 Кбит/сек
Программа кодирования                    : VirtualDubMod 1.5.10.3 | (build 2550/release)
Библиотека кодирования                   : VirtualDubMod build 2550/release

Видео
Идентификатор                            : 0
Формат                                   : MPEG-4 Visual
Профиль формата                          : Advanced Simple@L5
Параметр BVOP формата                    : 1
Параметр QPel формата                    : Нет
Параметр GMC формата                     : Без точки перехода
Параметр матрицы формата                 : Выборочная
Идентификатор кодека                     : XVID
Идентификатор кодека/Подсказка           : XviD
Продолжительность                        : 1 ч. 31 м.
Битрейт                                  : 1891 Кбит/сек
Ширина                                   : 720 пикселей
Высота                                   : 304 пикселя
Соотношение сторон                       : 2,35:1
Частота кадров                           : 23,976 кадра/сек
Цветовое пространство                    : YUV
Субдискретизация насыщенности            : 4:2:0
Битовая глубина                          : 8 бит
Тип развёртки                            : Прогрессивная
Метод сжатия                             : С потерями
Бит/(Пиксели*Кадры)                      : 0.360
Размер потока                            : 1,21 Гбайт (83%)
Библиотека кодирования                   : XviD 67

Аудио #1
Идентификатор                            : 1
Формат                                   : AC-3
Формат/Информация                        : Audio Coding 3
Расширение режима                        : CM (complete main)
Параметр Endianness формата              : Big
Идентификатор кодека                     : 2000
Продолжительность                        : 1 ч. 31 м.
Вид битрейта                             : Постоянный
Битрейт                                  : 192 Кбит/сек
Каналы                                   : 2 канала
Расположение каналов                     : Front: L R
Частота                                  : 48,0 КГц
Битовая глубина                          : 16 бит
Метод сжатия                             : С потерями
Размер потока                            : 125 Мбайт (8%)
Выравнивание                             : Разделение по промежуткам
Продолжительность промежутка             : 42  мс. (1,00 видеокадр)
Время предзагрузки промежутка            : 500  мс.

Аудио #2
Идентификатор                            : 2
Формат                                   : AC-3
Формат/Информация                        : Audio Coding 3
Расширение режима                        : CM (complete main)
Параметр Endianness формата              : Big
Идентификатор кодека                     : 2000
Продолжительность                        : 1 ч. 31 м.
Вид битрейта                             : Постоянный
Битрейт                                  : 192 Кбит/сек
Каналы                                   : 2 канала
Расположение каналов                     : Front: L R
Частота                                  : 48,0 КГц
Битовая глубина                          : 16 бит
Метод сжатия                             : С потерями
Размер потока                            : 125 Мбайт (8%)
Выравнивание                             : Разделение по промежуткам
Продолжительность промежутка             : 42  мс. (1,00 видеокадр)
Время предзагрузки промежутка            : 500  мс.



Скриншоты:
[+] Всего файлов в раздаче - 3:
Idealnyi_dom_2018_BDRip_MVO_by_Dalemake.avi1.46 GB
Idealnyi_dom_2018_BDRip_MVO_by_Dalemake_Rus_Sub.srt125.86 kB
Idealnyi_dom_2018_BDRip_MVO_by_Dalemake_Eng_Sub.srt96.50 kB

Текущая раздача:
ДатаКомментарии    РазмерПиры
2018-09-11 U Идеальный дом / Ideal Home (2018) BDRip | HDrezka Studio 1.46 GB ↑ 48 ↓ 14

Показать еще раздачи по запросу идеальный:
2018-07-11 U Идеальный дом / Ideal Home (2018) WEB-DLRip-AVC от OlLanDGroup | HDRezka Studio 1.58 GB ↑ 29 ↓ 8
2017-12-02 U Идеальный побег / A Perfect Getaway (2009) BDRip-AVC от HELLYWOOD | Режиссерская версия | D 1К2.18 GB ↑ 135 ↓ 49
2017-04-15 U Тони Хэммерсли - Мой идеальный дом. 166 лайфхаков (2016) PDF 36.56 MB ↑ 700 ↓ 13
2016-09-19 U Идеальный мужчина / Un homme idéal (2015) BDRip 720p | Р, A | Line 5.93 GB ↑ 91 ↓ 40
2016-09-19 U Идеальный мужчина / Un homme idéal (2015) HDRip | Line 2.04 GB ↑ 158 ↓ 45
2016-07-12 U VA - Идеальный Хит 10 (2016) MP3 1К670.79 MB ↑ 93 ↓ 21
2016-04-20 U Идеальный незнакомец / Perfect Stranger (2007) HDRip от Scarabey | D 1.45 GB ↑ 58 ↓ 14

Отзывы
Зарегистрируйтесь чтобы добавить комментарий.
Обратная связь
Copyleft ©