↑↓Torrent.by
Поиск
Логин: Регистрация
Пароль: Восстановить пароль
Загрузка...

Харизматы / Charismata (2017) WEB-DL 1080p от OlLanDGroup | HDRezka Studio

Скачать harizmaty-charismata-2017-web-dl-1080p-ot-ollandgroup-hdrezka-studio.torrent
U Магнитная ссылка Размер: 3.47 GB Раздают: 58 Качают: 24 Добавлен: 2018-09-11 08:53:12
Харизматы / Charismata (2017) WEB-DL 1080p от OlLanDGroup | HDRezka Studio

Харизматы / Charismata
«Face your demons»

Год выпуска: 2017
Страна: Великобритания
Производство: Hydra Films RKM, Loose Canon Films
Жанр:  Ужасы

Режиссёр: Энди Кольер, Тур Миан
В ролях: Сара Бек Мэтер, Джейми Саттертвейт, Андонис Энтони, Джонни Виваш, Росс Маллен, Дэвид Дж. Пил, Итан Чаплс, Николь О'Нилл, Энтони Тейлор, Шон Нопп

Перевод: Профессиональный (многоголосый, закадровый) | HDRezka Studio
Субтитры: Английские (полные)
Реклама: Отсутствует

Описание: Психологический фильм ужасов о детективе, которая сталкивается с ритуальными убийствами. Пытаясь раскрыть непростое дело, она начинает сходить с ума. Что же таится за адскими символами и библейскими отсылками?

Качество: WEB-DL 1080p | iTunes Version | Charismata.2017.1080p.WEB-DL.DD5.1.H264-FGT
Продолжительность: 01:36:17

Формат: MKV
Видео кодек: MPEG-4 AVC
Аудио кодек: AC3
Видео: 1908x792 (2.40:1), 23,976 fps, x264 ~4 577 kbps avg, 0.126 bit/pixel
Аудио #1: 48 kHz, AC3 Dolby Digital, 2 (L,R) ch, ~192.00 kbps avg | RUS (HDRezka Studio)
Аудио #2: 48 kHz, AC3 Dolby Digital, 3/2 (L,C,R,l,r) + LFE ch, ~384.00 kbps avg | ENG

Дата премьеры (мир): 16 сентября 2017
Дата премьеры (РФ):

Релиз:


[+] MediaInfo

Общее
Уникальный идентификатор                 : 238513270655184447354612105529681082079 (0xB36FFC298A558D37C2955744775976DF)
Полное имя                               : F:OlLanDGroupCharismata.2017.WEB-DL(1080p).OlLanDGroup.mkv
Формат                                   : Matroska
Версия формата                           : Version 4 / Version 2
Размер файла                             : 3,47 Гбайт
Продолжительность                        : 1 ч. 36 м.
Общий поток                              : 5155 Кбит/сек
Название фильма                          : Charismata.2017   #TorpedoUK#
Дата кодирования                         : UTC 2018-09-11 03:47:14
Программа кодирования                    : mkvmerge v25.0.0 ('Prog Noir') 64-bit
Библиотека кодирования                   : libebml v1.3.6 + libmatroska v1.4.9
Обложка                                  : Yes
Attachments                              : small_cover.jpg / small_cover_land.jpg / cover.jpg / cover_land.jpg

Видео
Идентификатор                            : 1
Формат                                   : AVC
Формат/Информация                        : Advanced Video Codec
Профиль формата                          : High@L4
Параметр CABAC формата                   : Да
Параметр ReFrames формата                : 5 кадров
Идентификатор кодека                     : V_MPEG4/ISO/AVC
Продолжительность                        : 1 ч. 36 м.
Битрейт                                  : 4577 Кбит/сек
Ширина                                   : 1908 пикселей
Высота                                   : 792 пикселя
Соотношение сторон                       : 2,40:1
Режим частоты кадров                     : Постоянный
Частота кадров                           : 23,976 (24000/1001) кадра/сек
Цветовое пространство                    : YUV
Субдискретизация насыщенности            : 4:2:0
Битовая глубина                          : 8 бит
Тип развёртки                            : Прогрессивная
Бит/(Пиксели*Кадры)                      : 0.126
Размер потока                            : 3,08 Гбайт (89%)
Заголовок                                : Charismata.2017.1080p.WEB-DL.DD5.1.H264-FGT
Язык                                     : English
Default                                  : Да
Forced                                   : Нет
Цветовой диапазон                        : Limited
Основные цвета                           : BT.709
Характеристики трансфера                 : BT.709
Коэффициенты матрицы                     : BT.709

Аудио #1
Идентификатор                            : 2
Формат                                   : AC-3
Формат/Информация                        : Audio Coding 3
Расширение режима                        : CM (complete main)
Параметр Endianness формата              : Big
Идентификатор кодека                     : A_AC3
Продолжительность                        : 1 ч. 36 м.
Вид битрейта                             : Постоянный
Битрейт                                  : 192 Кбит/сек
Каналы                                   : 2 канала
Расположение каналов                     : Front: L R
Частота                                  : 48,0 КГц
Частота кадров                           : 31,250 кадров/сек (1536 spf)
Битовая глубина                          : 16 бит
Метод сжатия                             : С потерями
Задержка видео                           : -42 мс.
Размер потока                            : 132 Мбайт (4%)
Заголовок                                : MVO [HDRezka Studio]
Язык                                     : Russian
Default                                  : Да
Forced                                   : Нет

Аудио #2
Идентификатор                            : 3
Формат                                   : AC-3
Формат/Информация                        : Audio Coding 3
Расширение режима                        : CM (complete main)
Параметр Endianness формата              : Big
Идентификатор кодека                     : A_AC3
Продолжительность                        : 1 ч. 36 м.
Вид битрейта                             : Постоянный
Битрейт                                  : 384 Кбит/сек
Каналы                                   : 6 каналов
Расположение каналов                     : Front: L C R, Side: L R, LFE
Частота                                  : 48,0 КГц
Частота кадров                           : 31,250 кадров/сек (1536 spf)
Битовая глубина                          : 16 бит
Метод сжатия                             : С потерями
Задержка видео                           : -42 мс.
Размер потока                            : 264 Мбайт (7%)
Заголовок                                : [Original]
Язык                                     : English
Default                                  : Нет
Forced                                   : Нет

Текст
Идентификатор                            : 4
Формат                                   : UTF-8
Идентификатор кодека                     : S_TEXT/UTF8
Идентификатор кодека/Информация          : UTF-8 Plain Text
Продолжительность                        : 1 ч. 32 м.
Битрейт                                  : 58 бит/сек
Count of elements                        : 1382
Размер потока                            : 39,7 Кбайт (0%)
Заголовок                                : Full
Язык                                     : English
Default                                  : Нет
Forced                                   : Нет

Меню
00:00:00.000                             : en:1
00:02:15.000                             : en:2
00:12:19.000                             : en:3
00:22:26.000                             : en:4
00:35:19.000                             : en:5
00:46:06.000                             : en:6
00:57:03.000                             : en:7
01:08:35.000                             : en:8
01:18:34.000                             : en:9
01:34:45.000                             : en:10



Скриншоты:
[+] Всего файлов в раздаче - 1:
Charismata.2017.WEB-DL(1080p).OlLanDGroup.mkv3.47 GB

Текущая раздача:
ДатаКомментарии    РазмерПиры
2018-09-11 U Харизматы / Charismata (2017) WEB-DL 1080p от OlLanDGroup | HDRezka Studio 3.47 GB ↑ 58 ↓ 24

Похожие раздачи по запросу - харизматы:
2018-09-12 U Харизматы / Charismata (2017) WEB-DLRip-AVC от OlLanDGroup | HDRezka Studio 1.46 GB ↑ 126 ↓ 32

Отзывы
Зарегистрируйтесь чтобы добавить комментарий.
Обратная связь
Copyleft ©