↑↓Torrent.by
Поиск
Логин: Регистрация
Пароль: Восстановить пароль
Загрузка...

Битва проклятых / Battle of the Damned (2013) BDRip 1080p | L2

Скачать bitva-proklyatyh-battle-of-the-damned-2013-bdrip-1080p-l2.torrent
U Магнитная ссылка Размер: 7.73 GB Раздают: 38 Качают: 15 Добавлен: 2018-09-11 11:59:33
Битва проклятых / Battle of the Damned (2013) BDRip 1080p | L2

Название: Битва проклятых
Оригинальное название: Battle of the Damned
Год выхода: 2013
Жанр: Фантастика, боевик, приключения
Режиссер: Кристофер Хаттон
В ролях: Дольф Лундгрен, Мэтт Доран, Дэвид Филд, Эстебан Куето, Лидия Лук, Мелани Занетти, Ода Мария, Джен Санг Отербридж, Джефф Прюитт, Бродус Мэттисон

О фильме:
На краю цивилизации тестовая лаборатория лежит в руинах. Из-за досадной ошибки службы безопасности лаборатории произошла катастрофа. Огромное число людей в одночасье превратились в зомби. И лишь небольшая кучка выживших, возглавляемая отважным солдатом Максом Гатлингом, с оружием в руках пробирается сквозь армию мутировавших. Вроде бы, пока все в духе традиционных зомби-хорроров… Однако нашим героям неведома другая смертельная опасность. Из-за все той же аварии на свободе оказались прототипы военных роботов. Хорошо вооруженные, бронированные и чрезвычайно опасные машины по замыслу их создателей должны были в случае непредвиденной ситуации начать немедленную борьбу с живыми мертвецами. Но роботы не были доведены до ума и оказались неспособны отличать обычных людей от зомби.

Страна: США, Сингапур
Студия: Boku Films, BOTD Productions, Compound B, Vividthree Productions
Продолжительность: 01:28:38
Перевод: Любительский двухголосый

Файл
Кодек: x.264
Качество: BDRip 1080p | Battle.of.the.Damned.2013.1080p.BluRay.x264
Видео: MPEG-4 AVC, 1920x1080, 11.6 Mбит/с, 23.976 кадр/с
Аудио #1: Русский ( АС3, 6ch, 448 Кбит/с, 48.0 KHz) Любительский (двухголосый, закадровый)
Аудио #2: Английский ( АС3, 6ch, 448 Кбит/с, 48.0 KHz)
Субтитры: нет


[+] MediaInfo
Источник: Battle.of.the.Damned.2013.1080p.BluRay.x264
General
Unique ID                      : 245303443136756073546946667184845815114 (0xB88BB9834E9CAE70B2F672FEEC28FD4A)
Complete name                  : Battle.of.the.Damned.2013.BDRip.1080p.mkv
Format                         : Matroska
Format version                 : Version 4 / Version 2
File size                      : 7.73 GiB
Duration                       : 1 h 28 min
Overall bit rate               : 12.5 Mb/s
Encoded date                   : UTC 2018-09-10 11:18:58
Writing application            : mkvmerge v7.1.0 ('Good Love') 64bit built on Jul 27 2014 13:06:55
Writing library                : libebml v1.3.0 + libmatroska v1.4.1

Video
ID                             : 1
Format                         : AVC
Format/Info                    : Advanced Video Codec
Format profile                 : High@L4.1
Format settings                : CABAC / 4 Ref Frames
Format settings, CABAC         : Yes
Format settings, ReFrames      : 4 frames
Codec ID                       : V_MPEG4/ISO/AVC
Duration                       : 1 h 28 min
Bit rate                       : 11.6 Mb/s
Width                          : 1 920 pixels
Height                         : 1 080 pixels
Display aspect ratio           : 16:9
Frame rate mode                : Constant
Frame rate                     : 23.976 FPS
Color space                    : YUV
Chroma subsampling             : 4:2:0
Bit depth                      : 8 bits
Scan type                      : Progressive
Bits/(Pixel*Frame)             : 0.233
Stream size                    : 7.17 GiB (93%)
Writing library                : x264 core 133 r2334 a3ac64b
Encoding settings              : cabac=1 / ref=4 / deblock=1:0:0 / analyse=0x3:0x133 / me=umh / subme=7 / psy=1 / psy_rd=1.00:0.00 / mixed_ref=1 / me_range=16 / chroma_me=1 / trellis=1 / 8x8dct=1 / cqm=0 / deadzone=21,11 / fast_pskip=0 / chroma_qp_offset=-2 / threads=18 / lookahead_threads=3 / sliced_threads=0 / nr=0 / decimate=1 / interlaced=0 / bluray_compat=0 / constrained_intra=0 / bframes=3 / b_pyramid=2 / b_adapt=2 / b_bias=0 / direct=3 / weightb=1 / open_gop=0 / weightp=2 / keyint=250 / keyint_min=23 / scenecut=40 / intra_refresh=0 / rc_lookahead=50 / rc=2pass / mbtree=1 / bitrate=11593 / ratetol=1.0 / qcomp=0.60 / qpmin=0 / qpmax=69 / qpstep=4 / cplxblur=20.0 / qblur=0.5 / ip_ratio=1.40 / aq=1:1.00
Language                       : English
Default                        : Yes
Forced                         : No

Audio #1
ID                             : 2
Format                         : AC-3
Format/Info                    : Audio Coding 3
Commercial name                : Dolby Digital
Codec ID                       : A_AC3
Duration                       : 1 h 28 min
Bit rate mode                  : Constant
Bit rate                       : 448 kb/s
Channel(s)                     : 6 channels
Channel layout                 : L R C LFE Ls Rs
Sampling rate                  : 48.0 kHz
Frame rate                     : 31.250 FPS (1536 SPF)
Bit depth                      : 16 bits
Compression mode               : Lossy
Stream size                    : 284 MiB (4%)
Language                       : Russian
Service kind                   : Complete Main
Default                        : Yes
Forced                         : No

Audio #2
ID                             : 3
Format                         : AC-3
Format/Info                    : Audio Coding 3
Commercial name                : Dolby Digital
Codec ID                       : A_AC3
Duration                       : 1 h 28 min
Bit rate mode                  : Constant
Bit rate                       : 448 kb/s
Channel(s)                     : 6 channels
Channel layout                 : L R C LFE Ls Rs
Sampling rate                  : 48.0 kHz
Frame rate                     : 31.250 FPS (1536 SPF)
Bit depth                      : 16 bits
Compression mode               : Lossy
Stream size                    : 284 MiB (4%)
Language                       : English
Service kind                   : Complete Main
Default                        : No
Forced                         : No

Menu
00:00:00.000                   : en:00:00:00.000
00:08:18.665                   : en:00:08:18.665
00:15:29.929                   : en:00:15:29.929
00:21:37.713                   : en:00:21:37.713
00:25:27.401                   : en:00:25:27.401
00:30:32.247                   : en:00:30:32.247
00:36:16.049                   : en:00:36:16.049
00:46:36.377                   : en:00:46:36.377
00:51:27.960                   : en:00:51:27.960
00:59:20.974                   : en:00:59:20.974
01:08:25.685                   : en:01:08:25.685
01:25:42.846                   : en:01:25:42.846



Скриншоты:
[+] Всего файлов в раздаче - 1:
Battle.of.the.Damned.2013.BDRip.1080p.mkv7.73 GB

Текущая раздача:
ДатаКомментарии    РазмерПиры
2018-09-11 U Битва проклятых / Battle of the Damned (2013) BDRip 1080p | L2 7.73 GB ↑ 38 ↓ 15

Показать еще раздачи по запросу битва:
2018-09-06 U Секретная папка. Операция Эвакуация: битва тыла (2018) SATRip 520.76 MB ↑ 44 ↓ 13
2018-08-19 U Битва за Луну: Начало (2018) SATRip 1.19 GB ↑ 120 ↓ 52
2018-08-05 U Битва за Рим / Kampf um Rom I + Kampf um Rom II - Der Verrat [01-02 из 02] (1968-1969) DVDRip-AVC от KORSAR | D 3.15 GB ↑ 105 ↓ 46
2018-04-01 U Экстрасенсы. Битва сильнейших [10x01-07] (2018) HDTVRip 720p 13.00 GB ↑ 49 ↓ 256
2018-03-30 U Битва в Арденнах / Wunderland (2018) WEBRip 720p | GreenРай Studio 2.67 GB ↑ 104 ↓ 72
2018-03-30 U Битва в Арденнах / Wunderland (2018) WEBRip 1080p | GreenРай Studio 2.55 GB ↑ 98 ↓ 75
2018-03-30 U Битва в Арденнах / Wunderland (2018) WEBRip | GreenРай Studio 1.37 GB ↑ 209 ↓ 90

Отзывы
Зарегистрируйтесь чтобы добавить комментарий.
Обратная связь
Copyleft ©