↑↓Torrent.by
Поиск
Логин: Регистрация
Пароль: Восстановить пароль
Загрузка...

Универ. Новая общага [15x01-07] (2018) HDTVRip от GeneralFilm

Скачать univer-novaya-obschaga-15x01-07-2018-hdtvrip-ot-generalfilm.torrent
U Магнитная ссылка Размер: 2.09 GB Раздают: 112 Качают: 275 Добавлен: 2018-09-12 15:37:11
Универ. Новая общага [15x01-07] (2018) HDTVRip от GeneralFilm

Оригинальное название: Универ. Новая общага
Год выпуска: 2018
Жанр:  Ситком, комедия
Режиссер: Константин Колесов
В ролях: Арарат Кещян, Александр Стекольников, Станислав Ярушин, Анна Кузина, Анна Хилькевич, Константин Шелягин, Григорий Кокоткин, Елена Валюшкина

О фильме:
Финальный сезон сериала «Универ» стартует 3 сентября. Ситком завершится четверной свадьбой и неожиданным возвращением старых героев. Первая серия «Универа» вышла в эфир ТНТ в 2008 году, когда Дима Билан выиграл «Евровидение», сборная России по хоккею — чемпионат мира, а «Зенит» — Кубок УЕФА. Ни о Монеточке, ни о Гречке, ни о Гнойном никто тогда и не догадывался. Выражения из ситкома разлетелись на цитаты (слово «мемы» тогда ещё не было так заразно): «пипец», «потеря потерь», «блин блинский» и «крутяк». Песня Кузи «Шняга шняжная» стала негласным гимном прекрасной студенческой жизни. «Универ» ширился, герои взрослели, влюблялись и расставались, уходили и возвращались, учились и тусовались. И теперь настало время попрощаться с ними.

Страна: Россия
Студия: «Комеди Клаб Продакшн»
Продолжительность: 7 x ~ 00:23:00
Перевод: Не требуется
Субтитры: нет

Файл
Формат: avi
Качество: HDTVRip
Видео: XviD build 73, 720x400 (16:9), 25.000 fps, ~ 1550 Kbps (~ 0.215 bit/pixel)
Звук: 48.0 kHz, AC3, 2/0 ch, 192 kbps

Релиз:


[+] MediaInfo
General
Complete name               : D:RazdachiUniver.s15.2018.XviD.HDTVRip.GeneralFilmUniver.s15.e01.avi
Format                      : AVI
Format/Info                 : Audio Video Interleave
File size                   : 305 MiB
Duration                    : 24 min 21 s
Overall bit rate            : 1 751 kb/s
Writing application         : VirtualDubMod 1.5.10.3 | www.virtualdub-fr.org || (build 2550/release)
Writing library             : VirtualDubMod build 2550/release

Video
ID                          : 0
Format                      : MPEG-4 Visual
Format profile              : Advanced Simple@L5
Format settings, BVOP       : 1
Format settings, QPel       : No
Format settings, GMC        : No warppoints
Format settings, Matrix     : Custom
Codec ID                    : XVID
Codec ID/Hint               : XviD
Duration                    : 24 min 21 s
Bit rate                    : 1 549 kb/s
Width                       : 720 pixels
Height                      : 400 pixels
Display aspect ratio        : 16:9
Frame rate                  : 25.000 FPS
Color space                 : YUV
Chroma subsampling          : 4:2:0
Bit depth                   : 8 bits
Scan type                   : Progressive
Compression mode            : Lossy
Bits/(Pixel*Frame)          : 0.215
Stream size                 : 270 MiB (88%)
Writing library             : XviD 73

Audio
ID                          : 1
Format                      : AC-3
Format/Info                 : Audio Coding 3
Format settings, Endianness : Big
Codec ID                    : 2000
Duration                    : 24 min 21 s
Bit rate mode               : Constant
Bit rate                    : 192 kb/s
Channel(s)                  : 2 channels
Channel positions           : Front: L R
Sampling rate               : 48.0 kHz
Frame rate                  : 31.250 FPS (1536 SPF)
Bit depth                   : 16 bits
Compression mode            : Lossy
Stream size                 : 33.5 MiB (11%)
Alignment                   : Split accross interleaves
Interleave, duration        : 40  ms (1.00 video frame)
Interleave, preload duratio : 500  ms
Service kind                : Complete Main



Скриншоты:
[+] Всего файлов в раздаче - 7:
Univer.s15.e02.avi305.33 MB
Univer.s15.e01.avi305.05 MB
Univer.s15.e03.avi305.20 MB
Univer.s15.e04.avi305.44 MB
Univer.s15.e05.avi305.12 MB
Univer.s15.e06.avi305.56 MB
Univer.s15.e07.avi305.37 MB

Текущая раздача:
ДатаКомментарии    РазмерПиры
2018-09-12 U Универ. Новая общага [15x01-07] (2018) HDTVRip от GeneralFilm 2.09 GB ↑ 112 ↓ 275

Показать еще раздачи по запросу универ:
Сегодня U Универ. Новая общага [15х01-11] (2018) SATRip 3.78 GB ↑ 35 ↓ 72
Сегодня U Универ. Новая общага [15х01-16] (2018) WEBRip 1080p от ExKinoRay 14.22 GB ↑ 65 ↓ 414
Вчера U Универ. Новая общага [15х01-15] (2018) WEBRip 1080p от ExKinoRay 13.32 GB ↑ 75 ↓ 589
2018-09-14 U Универ. Новая общага [15x01-09] (2018) HDTVRip от GeneralFilm 2.68 GB ↑ 48 ↓ 214
2018-09-13 U Универ. Новая общага [15x01-08] (2018) HDTVRip от GeneralFilm 2.39 GB ↑ 53 ↓ 205
2018-09-12 U Универ. Новая общага [15х01-07] (2018) SATRip 2.40 GB ↑ 49 ↓ 96
2018-09-11 U Универ. Новая общага [15x01-06] (2018) HDTVRip от GeneralFilm 1.78 GB ↑ 68 ↓ 201

Отзывы
Зарегистрируйтесь чтобы добавить комментарий.
Обратная связь
Copyleft ©