↑↓Torrent.by
Поиск
Логин: Регистрация
Пароль: Восстановить пароль
Загрузка...

Падре / The Padre (2018) WEB-DLRip | P

Скачать padre-the-2018-web-dlrip-p.torrent
U Магнитная ссылка Размер: 1.46 GB Раздают: 122 Качают: 71 Добавлен: 2018-09-12 15:37:18
Падре / The Padre (2018) WEB-DLRip | P

Название: Падре
Оригинальное название: The Padre
Год выхода: 2018
Жанр: Драма
Страна: Канада
Перевод: Профессиональный (многоголосый, закадровый) | Официальный звук
Продолжительность: 01:35:05
Режиссер: Джонатан Собол
В ролях: Валерия Энрикез, Тим Рот, Ник Нолти, Луис Гусман, Мари Пакуин, Хейли Эрмида, Бенжамин Петерсен и др.

О фильме: Немолодой вор Падре скрывается от полиции на угнанной машине, не заметив, что в салоне спряталась девочка-подросток. Неудобная попутчица уговаривает Падре сделать ее своей напарницей и вместе провернуть по-настоящему крупное ограбление.

Файл
Формат: AVI
Качество: WEB-DLRip
Видео: Xvid 73, 704x288, ~1796 kbps, 23,976 fps
Звук: русский, AC3, 2.0 ch, 48 kHz, 384 kbps
Субтитры: русские (вшитые) на испанскую речь


[+] MI
General
Полное имя                               : F:TorrentPadreWEB-DLRip.avi
Формат                                   : AVI
Формат/Информация                        : Audio Video Interleave
Профиль формата                          : OpenDML
Размер файла                             : 1.46 GiB
Продолжительность                        : 1 h 35 min
Общий поток                              : 2 191 kb/s
Программа кодирования                    : XviD4PSP 6.0 / 54.27.101

Video
Идентификатор                            : 0
Формат                                   : MPEG-4 Visual
Профиль формата                          : Advanced Simple@L5
Настройки формата                        : BVOP2 / Custom Matrix
Параметр BVOP формата                    : 2
Параметр QPel формата                    : No
Параметр GMC формата                     : No warppoints
Параметр матрицы формата                 : Custom
Идентификатор кодека                     : XVID
Идентификатор кодека/Подсказка           : XviD
Продолжительность                        : 1 h 35 min
Битрейт                                  : 1 796 kb/s
Ширина                                   : 704 pixels
Высота                                   : 288 pixels
Соотношение сторон                       : 2.40:1
Частота кадров                           : 23.976 (23976/1000) FPS
Цветовое пространство                    : YUV
Субдискретизация насыщенности            : 4:2:0
Битовая глубина                          : 8 bits
Тип развёртки                            : Progressive
Метод сжатия                             : Lossy
Бит/(Пиксели*Кадры)                      : 0.369
Размер потока                            : 1.19 GiB (82%)
Библиотека кодирования                   : XviD 73

Audio
Идентификатор                            : 1
Формат                                   : AC-3
Формат/Информация                        : Audio Coding 3
Идентификатор кодека                     : 2000
Продолжительность                        : 1 h 35 min
Вид битрейта                             : Constant
Битрейт                                  : 384 kb/s
Каналы                                   : 2 channels
Расположение каналов                     : Front: L R
Частота                                  : 48.0 kHz
Частота кадров                           : 31.250 FPS (1536 SPF)
Битовая глубина                          : 16 bits
Метод сжатия                             : Lossy
Размер потока                            : 261 MiB (18%)
Выравнивание                             : Aligned on interleaves
Продолжительность промежутка             : 32  ms (0.77 video frame)




Скриншоты:
[+] Всего файлов в раздаче - 1:
PadreWEB-DLRip.avi1.46 GB

Текущая раздача:
ДатаКомментарии    РазмерПиры
2018-09-12 U Падре / The Padre (2018) WEB-DLRip | P 1.46 GB ↑ 122 ↓ 71

Похожие раздачи по запросу - падре:
2018-09-14 U Падре / The Padre (2018) WEB-DLRip-AVC от ExKinoRay | P 1.53 GB ↑ 34 ↓ 9
2018-09-12 U Падре / The Padre (2018) WEB-DLRip-AVC от ivanes20031987 | P 744.53 MB ↑ 89 ↓ 34
2018-09-12 U Падре / The Padre (2018) WEB-DL 1080p | P 3.51 GB ↑ 422 ↓ 210
2018-09-07 U Падре / The Padre (2018) WEBRip | L2 1.31 GB ↑ 56 ↓ 22
2018-08-31 U Падре / The Padre (2018) WEB-DLRip от ExKinoRay | Sub 1.37 GB ↑ 39 ↓ 19

Отзывы
Зарегистрируйтесь чтобы добавить комментарий.
Обратная связь
Copyleft ©