↑↓Torrent.by
Поиск
Логин: Регистрация
Пароль: Восстановить пароль
Загрузка...

Падре / The Padre (2018) WEB-DL 1080p | P

Скачать padre-the-2018-web-dl-1080p-p.torrent
U Магнитная ссылка Размер: 3.51 GB Раздают: 424 Качают: 211 Добавлен: 2018-09-12 19:35:54
Падре / The Padre (2018) WEB-DL 1080p | P

Название: Падре
Оригинальное название: The Padre
Год выхода: 2018
Жанр: Драма
Страна: Канада
Перевод: Профессиональный (многоголосый, закадровый) | Официальный звук
Продолжительность: 01:35:05
Режиссер: Джонатан Собол
В ролях: Валерия Энрикез, Тим Рот, Ник Нолти, Луис Гусман, Мари Пакуин, Хейли Эрмида, Бенжамин Петерсен и др.

О фильме: Немолодой вор Падре скрывается от полиции на угнанной машине, не заметив, что в салоне спряталась девочка-подросток. Неудобная попутчица уговаривает Падре сделать ее своей напарницей и вместе провернуть по-настоящему крупное ограбление.

Файл
Формат: MKV
Качество: WEB-DL 1080p
Видео: MPEG-4 AVC, 1920x796, 4521 kbps, 23,976 fps
Звук#1: русский, AC3, 2.0 ch, 48 kHz, 384 kbps  
Звук#2: английский, AC3, 5.1 ch, 48 kHz, 384 kbps
Субтитры: русские (forced) на испанскую речь


[+] MI
General
Уникальный идентификатор                 : 228658488810411403879940624123445593805 (0xAC0605E782DDBABC8E1198B6DA5F46CD)
Полное имя                               : F:TorrentPadreWEBDL1080p.mkv
Формат                                   : Matroska
Версия формата                           : Version 4 / Version 2
Размер файла                             : 3.51 GiB
Продолжительность                        : 1 h 35 min
Общий поток                              : 5 291 kb/s
Дата кодирования                         : UTC 2018-09-11 19:05:39
Программа кодирования                    : mkvmerge v9.5.0 ('Quiet Fire') 64bit
Библиотека кодирования                   : libebml v1.3.4 + libmatroska v1.4.5

Video
Идентификатор                            : 1
Формат                                   : AVC
Формат/Информация                        : Advanced Video Codec
Профиль формата                          : High@L4
Настройки формата                        : CABAC / 5 Ref Frames
Параметр CABAC формата                   : Yes
Параметр RefFrames формата               : 5 frames
Идентификатор кодека                     : V_MPEG4/ISO/AVC
Продолжительность                        : 1 h 35 min
Битрейт                                  : 4 521 kb/s
Ширина                                   : 1 920 pixels
Высота                                   : 796 pixels
Соотношение сторон                       : 2.40:1
Режим частоты кадров                     : Constant
Частота кадров                           : 23.976 (24000/1001) FPS
Цветовое пространство                    : YUV
Субдискретизация насыщенности            : 4:2:0
Битовая глубина                          : 8 bits
Тип развёртки                            : Progressive
Бит/(Пиксели*Кадры)                      : 0.123
Размер потока                            : 3.00 GiB (85%)
Язык                                     : English
Default                                  : Yes
Forced                                   : No
Цветовой диапазон                        : Limited
Основные цвета                           : BT.709
Характеристики трансфера                 : BT.709
Коэффициенты матрицы                     : BT.709

Audio #1
Идентификатор                            : 2
Формат                                   : AC-3
Формат/Информация                        : Audio Coding 3
Идентификатор кодека                     : A_AC3
Продолжительность                        : 1 h 35 min
Вид битрейта                             : Constant
Битрейт                                  : 384 kb/s
Каналы                                   : 2 channels
Расположение каналов                     : Front: L R
Частота                                  : 48.0 kHz
Частота кадров                           : 31.250 FPS (1536 SPF)
Битовая глубина                          : 16 bits
Метод сжатия                             : Lossy
Размер потока                            : 261 MiB (7%)
Язык                                     : Russian
Default                                  : Yes
Forced                                   : No

Audio #2
Идентификатор                            : 3
Формат                                   : AC-3
Формат/Информация                        : Audio Coding 3
Идентификатор кодека                     : A_AC3
Продолжительность                        : 1 h 35 min
Вид битрейта                             : Constant
Битрейт                                  : 384 kb/s
Каналы                                   : 6 channels
Расположение каналов                     : Front: L C R, Side: L R, LFE
Частота                                  : 48.0 kHz
Частота кадров                           : 31.250 FPS (1536 SPF)
Битовая глубина                          : 16 bits
Метод сжатия                             : Lossy
Размер потока                            : 261 MiB (7%)
Язык                                     : English
Default                                  : No
Forced                                   : No

Text
Идентификатор                            : 4
Формат                                   : UTF-8
Идентификатор кодека                     : S_TEXT/UTF8
Идентификатор кодека/Информация          : UTF-8 Plain Text
Продолжительность                        : 1 h 29 min
Битрейт                                  : 10 b/s
ElementCount                             : 161
Размер потока                            : 7.21 KiB (0%)
Язык                                     : Russian
Default                                  : Yes
Forced                                   : Yes

Menu
00:00:00.000                             : :1
00:05:57.732                             : :2
00:12:42.553                             : :3
00:18:00.286                             : :4
00:23:41.000                             : :5
00:29:40.483                             : :6
00:35:47.139                             : :7
00:43:16.506                             : :8
00:46:55.683                             : :9
00:53:58.688                             : :10
00:57:25.519                             : :11
01:04:34.154                             : :12
01:08:47.406                             : :13
01:16:22.943                             : :14
01:25:41.042                             : :15
01:27:56.509                             : :16




Скриншоты:
[+] Всего файлов в раздаче - 1:
PadreWEBDL1080p.mkv3.51 GB

Текущая раздача:
ДатаКомментарии    РазмерПиры
2018-09-12 U Падре / The Padre (2018) WEB-DL 1080p | P 3.51 GB ↑ 424 ↓ 211

Похожие раздачи по запросу - падре:
2018-09-14 U Падре / The Padre (2018) WEB-DLRip-AVC от ExKinoRay | P 1.53 GB ↑ 98 ↓ 10
2018-09-12 U Падре / The Padre (2018) WEB-DLRip-AVC от ivanes20031987 | P 744.53 MB ↑ 111 ↓ 35
2018-09-12 U Падре / The Padre (2018) WEB-DLRip | P 1.46 GB ↑ 270 ↓ 72
2018-09-07 U Падре / The Padre (2018) WEBRip | L2 1.31 GB ↑ 128 ↓ 23
2018-08-31 U Падре / The Padre (2018) WEB-DLRip от ExKinoRay | Sub 1.37 GB ↑ 39 ↓ 19

Отзывы
Зарегистрируйтесь чтобы добавить комментарий.
Обратная связь
Copyleft ©