↑↓Torrent.by
Поиск
Логин: Регистрация
Пароль: Восстановить пароль
Загрузка...

Убийца 2. Против всех / Sicario: Day of the Soldado (2018) WEBRip-AVC от ivanes20031987 | BadBajo

Скачать ubiyca-2-protiv-vseh-sicario-day-of-the-soldado-2018-webrip-avc-ot-ivanes20031987-badbajo.torrent
U Магнитная ссылка Размер: 1.46 GB Раздают: 156 Качают: 59 Добавлен: 2018-09-13 10:33:31
Убийца 2. Против всех / Sicario: Day of the Soldado (2018) WEBRip-AVC от ivanes20031987 | BadBajo

Название: Убийца 2. Против всех
Оригинальное название: Sicario 2: Soldado / Sicario: Day of the Soldado
Год выхода: 2018
Жанр: боевик, триллер, драма, криминал
Режиссер: Стефано Соллима
В ролях: Бенисио Дель Торо, Джош Бролин, Изабела Монер, Джеффри Донован, Кэтрин Кинер, Мануэль Рульфо, Мэттью Модайн, Шей Уигэм, Элиас Гарза, Ховард Фергюсон мл

О фильме:
Обстановка на американо-мексиканской границе накаляется, когда наркокартели начинают переправлять в США террористов. Чтобы дать им отпор федеральный агент Мэтт Грейвер вынужден вновь объединиться с не самым надежным напарником — Алехандро.

Страна: США, Италия
Продолжительность: 02:02:23
Перевод: Одноголосый закадровый BadBajo

Файл
Кодек: H.264
Качество: WEBRip-AVC / Sicario.Day.of.the.Soldado.2018.1080p.AMZN.WEBRip.DD5.1.x264-FGT
Видео: MPEG-4 AVC, 878x364 (2.40:1), 23,976 fps, ~1286 kbps avg, 0.168 bit/pixel
Звук: 48 kHz, AC3 Dolby Digital, 3/2 (L,C,R,l,r) + LFE ch, ~384 kbps avg
Субтитры: Нет


[+] MediaInfo


Complete name               : D:РаздачаУбийца 2 Против всех (2018) WEBRip-AVC_ivanes20031987.mkv
Format                      : Matroska
Format version              : Version 2
File size                   : 1.46 GiB
Duration                    : 2 h 2 min
Overall bit rate            : 1 704 kb/s
Movie name                  : Убийца 2 Против всех (2018) WEBRip-AVC_ivanes20031987
Encoded date                : UTC 2018-09-12 16:26:38
Writing application         : mkvmerge v4.4.0 ('Die Wiederkehr') сборка от Jan  3 2011 21:40:45
Writing library             : libebml v1.0.0 + libmatroska v1.0.0
Cover                       : Yes
Attachments                 : cover.jpg

Video
ID                          : 1
Format                      : AVC
Format/Info                 : Advanced Video Codec
Format profile              : High@L4.1
Format settings, CABAC      : Yes
Format settings, RefFrames  : 11 frames
Codec ID                    : V_MPEG4/ISO/AVC
Duration                    : 2 h 2 min
Bit rate                    : 1 286 kb/s
Width                       : 878 pixels
Height                      : 364 pixels
Display aspect ratio        : 2.40:1
Frame rate mode             : Constant
Frame rate                  : 23.976 (24000/1001) FPS
Color space                 : YUV
Chroma subsampling          : 4:2:0
Bit depth                   : 8 bits
Scan type                   : Progressive
Bits/(Pixel*Frame)          : 0.168
Stream size                 : 1.10 GiB (75%)
Title                       : Rip by ivanes20031987
Writing library             : x264 core 155 r2901 7d0ff22
Encoding settings           : cabac=1 / ref=11 / deblock=1:-3:-2 / analyse=0x3:0x113 / me=umh / subme=10 / psy=1 / psy_rd=1.00:0.00 / mixed_ref=1 / me_range=32 / chroma_me=1 / trellis=2 / 8x8dct=1 / cqm=0 / deadzone=21,11 / fast_pskip=0 / chroma_qp_offset=-2 / threads=12 / lookahead_threads=2 / sliced_threads=0 / nr=0 / decimate=1 / interlaced=0 / bluray_compat=0 / constrained_intra=0 / bframes=13 / b_pyramid=2 / b_adapt=2 / b_bias=0 / direct=1 / weightb=1 / open_gop=0 / weightp=2 / keyint=240 / keyint_min=23 / scenecut=40 / intra_refresh=0 / rc_lookahead=60 / rc=crf / mbtree=0 / crf=16.6 / qcomp=0.60 / qpmin=0 / qpmax=69 / qpstep=4 / vbv_maxrate=50000 / vbv_bufsize=62500 / crf_max=0.0 / nal_hrd=none / filler=0 / ip_ratio=1.40 / pb_ratio=1.30 / aq=1:1.00
Default                     : Yes
Forced                      : No

Audio
ID                          : 2
Format                      : AC-3
Format/Info                 : Audio Coding 3
Format settings, Endianness : Big
Codec ID                    : A_AC3
Duration                    : 2 h 2 min
Bit rate mode               : Constant
Bit rate                    : 384 kb/s
Channel(s)                  : 6 channels
Channel positions           : Front: L C R, Side: L R, LFE
Sampling rate               : 48.0 kHz
Frame rate                  : 31.250 FPS (1536 SPF)
Bit depth                   : 16 bits
Compression mode            : Lossy
Stream size                 : 336 MiB (23%)
Title                       : BadBajo
Language                    : Russian
Service kind                : Complete Main
Default                     : Yes
Forced                      : No




Скриншоты:
[+] Всего файлов в раздаче - 1:
Убийца 2 Против всех (2018) WEBRip-AVC_ivanes20031987.mkv1.46 GB

Текущая раздача:
ДатаКомментарии    РазмерПиры
2018-09-13 U Убийца 2. Против всех / Sicario: Day of the Soldado (2018) WEBRip-AVC от ivanes20031987 | BadBajo 1.46 GB ↑ 156 ↓ 59

Показать еще раздачи по запросу убийца:
2018-11-12 U Убийца 2. Против всех / Sicario: Day of the Soldado (2018) BDRip 1080p от qqss44 & MegaPeer | iTunes 7.53 GB ↑ 74 ↓ 29
2018-10-19 U Последний убийца драконов / The Last Dragonslayer (2016) WEB-DLRip 1080p | LakeFilms 1К3.52 GB ↑ 81 ↓ 14
2018-10-04 U Убийца 2. Против всех / Sicario: Day of the Soldado (2018) BDRip от ExKinoRay | iTunes 1.46 GB ↑ 81 ↓ 35
2018-10-04 U Убийца 2. Против всех / Sicario: Day of the Soldado (2018) BDRip 720p от Scarabey | iTunes, P 4.86 GB ↑ 90 ↓ 37
2018-10-03 U Убийца 2. Против всех / Sicario: Day of the Soldado (2018) BDRip от MegaPeer | iTunes 747.05 MB ↑ 51 ↓ 27
2018-10-03 U Убийца 2. Против всех / Sicario: Day of the Soldado (2018) BDRip от ExKinoRay | iTunes 2.13 GB ↑ 61 ↓ 15
2018-10-03 U Убийца 2. Против всех / Sicario: Day of the Soldado (2018) BDRip от ExKinoRay | iTunes 1.46 GB ↑ 110 ↓ 21

Отзывы
Зарегистрируйтесь чтобы добавить комментарий.
Обратная связь
Copyleft ©