↑↓Torrent.by
Поиск
Логин: Регистрация
Пароль: Восстановить пароль
Загрузка...

Эпоха Лета / Age of Summer (2018) WEBRip | L2

Скачать epoha-leta-age-of-summer-2018-webrip-l2.torrent
U Магнитная ссылка Размер: 1.30 GB Раздают: 45 Качают: 14 Добавлен: 2018-09-13 10:34:49
Эпоха Лета / Age of Summer (2018) WEBRip | L2

Название: Эпоха Лета
Оригинальное название: Age of Summer
Год выхода: 2018
Жанр: Комедия
Режиссер: Билл Кили
В ролях: Петер Стормаре, Джейк Шлойтер, Брайан Ван Холт, Диармед Мёрта, Перси Хайнс Уайт, Кейн Ритчотт, Мадлен Уэйд, Браяна Салаз, Сандра Инохоса, Сэм Пьюфуа и другие
О фильме:
Решительный подросток изо всех сил пытается добиться одобрения своих сверстников, учась на спасателя Эрмоса-Бич. Ему предстоит столкнуться с испытаниями и сложными отношениями в прекрасное лето 1986.

Страна: США, Windowseat Entertainment
Продолжительность: 01:29:22
Перевод: Любительский (двухголосый закадровый) | HiWay Grope

Файл
Кодек: XviD
Качество: WEBRip  
Видео: 720x304, 23.976 fps, ~1682 kbps, 0.32 bit/pixel
Звук:
Аудио rus: AC3, 48 kHz, 6 ch, 384 Kbps
Субтитры: отсутствуют

Реклама: присутствует

Семпл

Релиз от: HiWay Grope


[+] MediaInfo:

General
Complete name                            : D:Age.of.Summer.2018.WEBRip.HiWayGropeAge.of.Summer.2018.WEBRip.HiWayGrope.avi
Format                                   : AVI
Format/Info                              : Audio Video Interleave
File size                                : 1.30 GiB
Duration                                 : 1 h 29 min
Overall bit rate                         : 2 076 kb/s
Writing application                      : VirtualDubMod 1.5.10.3 (build 2550/release)
Writing library                          : VirtualDubMod build 2550/release

Video
ID                                       : 0
Format                                   : MPEG-4 Visual
Format profile                           : Simple@L5
Format settings                          : BVOP1
Format settings, BVOP                    : 1
Format settings, QPel                    : No
Format settings, GMC                     : No warppoints
Format settings, Matrix                  : Default (MPEG)
Codec ID                                 : XVID
Codec ID/Hint                            : XviD
Duration                                 : 1 h 29 min
Bit rate                                 : 1 683 kb/s
Width                                    : 720 pixels
Height                                   : 304 pixels
Display aspect ratio                     : 2.40:1
Frame rate                               : 23.976 (24000/1001) FPS
Color space                              : YUV
Chroma subsampling                       : 4:2:0
Bit depth                                : 8 bits
Scan type                                : Progressive
Compression mode                         : Lossy
Bits/(Pixel*Frame)                       : 0.321
Stream size                              : 1.05 GiB (81%)
Writing library                          : XviD 67

Audio
ID                                       : 1
Format                                   : AC-3
Format/Info                              : Audio Coding 3
Codec ID                                 : 2000
Duration                                 : 1 h 29 min
Bit rate mode                            : Constant
Bit rate                                 : 384 kb/s
Channel(s)                               : 6 channels
Channel positions                        : Front: L C R, Side: L R, LFE
Sampling rate                            : 48.0 kHz
Frame rate                               : 31.250 FPS (1536 SPF)
Bit depth                                : 16 bits
Compression mode                         : Lossy
Stream size                              : 245 MiB (18%)
Alignment                                : Split accross interleaves
Interleave, duration                     : 42  ms (1.00 video frame)
Interleave, preload duration             : 500  ms
Service kind                             : Complete Main




Скриншоты:
[+] Всего файлов в раздаче - 1:
Age.of.Summer.2018.WEBRip.HiWayGrope.avi1.30 GB

Текущая раздача:
ДатаКомментарии    РазмерПиры
2018-09-13 U Эпоха Лета / Age of Summer (2018) WEBRip | L2 1 К 1.30 GB ↑ 45 ↓ 14

Показать еще раздачи по запросу эпоха:
2017-12-19 U Маринина Александра (составитель) - Были 90-х. Том 2. Эпоха лихой святости (2017) FB2 4.55 MB ↑ 319 ↓ 9
2016-02-14 U Никишин Александр - Тайны русской водки. Эпоха Иосифа Сталина (2016) FB2 1.38 MB ↑ 123 ↓ 12
2016-01-25 U Серия книг - Историческая фантастика. Эпоха Империй [19 томов + бонусы] (2010-2016) FB2 37.53 MB ↑ 775 ↓ 0
2015-10-12 U Тихонов Дмитрий - Эпоха последних слов (2014) MP3 1.87 GB ↑ 115 ↓ 19
2014-10-23 U Кундо: Эпоха угрозы / Kundo: Age of the Rampan (2014) HDRip | P2 2.06 GB ↑ 161 ↓ 66
2014-03-31 U Эпоха дракона: Рождение Искательницы / Dragon Age: Blood mage no seisen (2012) BDRip-AVC | iPad | P 1.54 GB ↑ 75 ↓ 50
2014-01-08 U Mount & Blade - Эпоха турниров / Mount & Blade - Warband [v. 1.158] (2010) PC | RePack by TRiOLD 1.74 GB ↑ 15026 ↓ 65121

Отзывы
Ermak
Рекламу уже в виде логотипа лепят. Нахрена?

Зарегистрируйтесь чтобы добавить комментарий.
Обратная связь
Copyleft ©