↑↓Torrent.by
Поиск
Логин: Регистрация
Пароль: Восстановить пароль
Загрузка...

Порочные от природы / Natural Vice (2018) HDRip-AVC | L2

Скачать porochnye-ot-prirody-natural-vice-2018-hdrip-avc-l2.torrent
U Магнитная ссылка Размер: 1.12 GB Раздают: 63 Качают: 17 Добавлен: 2018-09-13 14:33:38
Порочные от природы / Natural Vice (2018) HDRip-AVC | L2

Название: Порочные от природы
Оригинальное название: Natural Vice
Год выхода: 2018
Жанр: Боевик
Режиссер: Иззи Трауб
В ролях: Брент Харви, Джованна Николь, Аллен Теоски Роу, Ария Эмори, Энтони Фикко, Ивонн Лу, Ади Шаку, Джон Комп Шин, Руфино Ромеро, Доминик Вэнс и другие
О фильме:
Адам и его команда технократов зарабатывают на продаже уникальных наркотических таблеток через мафиозные сети по всему миру. Один из китайских распространителей решает обмануть систему, скрыв от них часть прибыли, и платит за это головой. Однако, ребята не знают, что родной брат убитого ими мелкого рэкетира является главой одной из китайских триад, и он принял убийство родственника слишком близко к сердцу.

Страна: США, Prodigium Pictures
Продолжительность: 01:21:53
Перевод: Любительский (двухголосый закадровый) | HiWay Grope

Файл
Кодек: MPEG-4 AVC/x.264
Качество: DVDRip-AVC
Видео: 720x288, 23.976 fps, ~1572 kbps, 0.316 bit/pixel
Звук:
Аудио rus: AC3, 48 kHz, 6 ch, 384 Kbps
Субтитры: отсутствуют

Реклама: присутствует

Семпл

Релиз от: HiWay Grope


[+] MediaInfo:

General
Unique ID                                : 203069776544266896201839121615502263832 (0x98C5D0FBF6BD2484BE6C1A0DBEE14618)
Complete name                            : D:Natural.Vice.2018.WEBRip-AVC.HiWayGropeNatural.Vice.2018.WEBRip-AVC.HiWayGrope.mkv
Format                                   : Matroska
Format version                           : Version 4 / Version 2
File size                                : 1.12 GiB
Duration                                 : 1 h 21 min
Overall bit rate                         : 1 957 kb/s
Encoded date                             : UTC 2018-09-13 09:09:57
Writing application                      : mkvmerge v25.0.0 ('Prog Noir') 64-bit
Writing library                          : libebml v1.3.6 + libmatroska v1.4.9

Video
ID                                       : 1
Format                                   : AVC
Format/Info                              : Advanced Video Codec
Format profile                           : Main@L3.1
Format settings                          : CABAC / 4 Ref Frames
Format settings, CABAC                   : Yes
Format settings, RefFrames               : 4 frames
Codec ID                                 : V_MPEG4/ISO/AVC
Duration                                 : 1 h 21 min
Bit rate                                 : 1 572 kb/s
Width                                    : 720 pixels
Height                                   : 288 pixels
Display aspect ratio                     : 2.500
Frame rate mode                          : Constant
Frame rate                               : 23.976 (24000/1001) FPS
Standard                                 : NTSC
Color space                              : YUV
Chroma subsampling                       : 4:2:0
Bit depth                                : 8 bits
Scan type                                : Progressive
Bits/(Pixel*Frame)                       : 0.316
Stream size                              : 920 MiB (80%)
Language                                 : English
Default                                  : Yes
Forced                                   : No
Color range                              : Limited
Color primaries                          : BT.601 NTSC
Transfer characteristics                 : BT.601
Matrix coefficients                      : BT.601

Audio
ID                                       : 2
Format                                   : AC-3
Format/Info                              : Audio Coding 3
Codec ID                                 : A_AC3
Duration                                 : 1 h 21 min
Bit rate mode                            : Constant
Bit rate                                 : 384 kb/s
Channel(s)                               : 6 channels
Channel positions                        : Front: L C R, Side: L R, LFE
Sampling rate                            : 48.0 kHz
Frame rate                               : 31.250 FPS (1536 SPF)
Bit depth                                : 16 bits
Compression mode                         : Lossy
Stream size                              : 225 MiB (20%)
Language                                 : Russian
Service kind                             : Complete Main
Default                                  : Yes
Forced                                   : No




Скриншоты:
[+] Всего файлов в раздаче - 1:
Natural.Vice.2018.WEBRip-AVC.HiWayGrope.mkv1.12 GB

Текущая раздача:
ДатаКомментарии    РазмерПиры
2018-09-13 U Порочные от природы / Natural Vice (2018) HDRip-AVC | L2 1.12 GB ↑ 63 ↓ 17

Похожие раздачи по запросу - порочные:
2018-05-28 U Порочные и голые / Viciosas al desnudo (1980) DVDRip | Sub 738.58 MB ↑ 204 ↓ 47
2017-08-14 U Сладкие и порочные / Sweet/Vicious [S01] (2016-2017) HDTVRip 720p | L 6.87 GB ↑ 113 ↓ 207
2013-10-22 U Порочные игры / Stoker (2013) HDRip | Лицензия 13К1.45 GB ↑ 12 ↓ 3

Отзывы
Зарегистрируйтесь чтобы добавить комментарий.
Обратная связь
Copyleft ©