↑↓Torrent.by
Поиск
Логин: Регистрация
Пароль: Восстановить пароль
Загрузка...

Хан Соло: Звёздные Войны. Истории / Solo: A Star Wars Story (2018) BDRip 720p | iTunes

Скачать han-solo-zvezdnye-voyny-istorii-a-star-wars-story-2018-bdrip-720p-itunes.torrent
U Магнитная ссылка Размер: 6.80 GB Раздают: 320 Качают: 326 Добавлен: 2018-09-14 05:41:25
Хан Соло: Звёздные Войны. Истории / Solo: A Star Wars Story (2018) BDRip 720p | iTunes

Название: Хан Соло: Звёздные Войны. Истории
Оригинальное название: Solo: A Star Wars Story
Год выхода: 2018
Жанр: Фантастика, фэнтези, боевик, приключения
Режиссер: Рон Ховард
В ролях: Олден Эренрайк, Йонас Суотамо, Вуди Харрельсон, Эмилия Кларк, Дональд Гловер, Тэнди Ньютон, Фиби Уоллер-Бридж, Пол Беттани, Джон Фавро, Линда Хант

О фильме: Фильм расскажет о похождениях юного космического сорвиголовы Хана Соло и его верного напарника Чубакки и о том, как они стали самыми быстрыми пилотами и самыми хитрыми контрабандистами далёкой Галактики.

Страна: США
Студия: Pantelion Films, 3Pas Studios, Metro-Goldwyn-Mayer (MGM)
Продолжительность: 02:14:46
Перевод: Дублированный | iTunes

Качество: BDRip 720p
Видео: MPEG-4 AVC, 1280x536, 5337 Kbit/s, 23.976 fps
Звук:
Аудио #01: 48 kHz, AC3, 5.1, 384 Kbps | iTunes | RUS |
Аудио #02: 48 kHz, DTS, 5.1, 1510 Kbps | Оригинал |  ENG |
Субтитры: Русские (forced, full, SDH), английские (Full, SDH, SDH Colored)

Релиз:


[+] MI
General
Unique ID                   : 195743538737011058309484849383668551510 (0x9342D5928C421BBD9D51CCADE2158F56)
Complete name               : D:Video1111Solo.A.Star.Wars.Story.2018.BDRip.720p.selezen.mkv
Format                      : Matroska
Format version              : Version 4 / Version 2
File size                   : 6.80 GiB
Duration                    : 2 h 14 min
Overall bit rate            : 7 221 kb/s
Movie name                  : Solo A Star Wars Story 2018 from selezen
Encoded date                : UTC 2018-09-13 21:30:13
Writing application         : mkvmerge v7.3.0 ('Nouages') 64bit built on Oct 22 2014 18:53:34
Writing library             : libebml v1.3.0 + libmatroska v1.4.1

Video
ID                          : 1
Format                      : AVC
Format/Info                 : Advanced Video Codec
Format profile              : High@L4.1
Format settings             : CABAC / 12 Ref Frames
Format settings, CABAC      : Yes
Format settings, ReFrames   : 12 frames
Codec ID                    : V_MPEG4/ISO/AVC
Duration                    : 2 h 14 min
Bit rate                    : 5 337 kb/s
Width                       : 1 280 pixels
Height                      : 536 pixels
Display aspect ratio        : 2.40:1
Frame rate mode             : Constant
Frame rate                  : 23.976 (24000/1001) FPS
Color space                 : YUV
Chroma subsampling          : 4:2:0
Bit depth                   : 8 bits
Scan type                   : Progressive
Bits/(Pixel*Frame)          : 0.324
Stream size                 : 5.01 GiB (74%)
Writing library             : x264 core 155 r2901 7d0ff22
Encoding settings           : cabac=1 / ref=12 / deblock=1:-3:-3 / analyse=0x3:0x113 / me=umh / subme=10 / psy=1 / psy_rd=1.05:0.10 / mixed_ref=1 / me_range=32 / chroma_me=1 / trellis=2 / 8x8dct=1 / cqm=0 / deadzone=21,11 / fast_pskip=0 / chroma_qp_offset=-2 / threads=17 / lookahead_threads=1 / sliced_threads=0 / nr=0 / decimate=1 / interlaced=0 / bluray_compat=0 / constrained_intra=0 / bframes=6 / b_pyramid=2 / b_adapt=2 / b_bias=0 / direct=3 / weightb=1 / open_gop=0 / weightp=2 / keyint=250 / keyint_min=23 / scenecut=40 / intra_refresh=0 / rc=2pass / mbtree=0 / bitrate=5337 / ratetol=1.0 / qcomp=0.70 / qpmin=0 / qpmax=69 / qpstep=4 / cplxblur=20.0 / qblur=0.5 / ip_ratio=1.40 / pb_ratio=1.30 / aq=3:1.00
Language                    : English
Default                     : Yes
Forced                      : No

Audio #1
ID                          : 2
Format                      : AC-3
Format/Info                 : Audio Coding 3
Commercial name             : Dolby Digital
Codec ID                    : A_AC3
Duration                    : 2 h 14 min
Bit rate mode               : Constant
Bit rate                    : 384 kb/s
Channel(s)                  : 6 channels
Channel layout              : L R C LFE Ls Rs
Sampling rate               : 48.0 kHz
Frame rate                  : 31.250 FPS (1536 SPF)
Bit depth                   : 16 bits
Compression mode            : Lossy
Stream size                 : 370 MiB (5%)
Title                       : iTunes
Language                    : Russian
Service kind                : Complete Main
Default                     : Yes
Forced                      : Yes

Audio #2
ID                          : 3
Format                      : DTS
Format/Info                 : Digital Theater Systems
Codec ID                    : A_DTS
Duration                    : 2 h 14 min
Bit rate mode               : Constant
Bit rate                    : 1 509 kb/s
Channel(s)                  : 6 channels
Channel layout              : C L R Ls Rs LFE
Sampling rate               : 48.0 kHz
Frame rate                  : 93.750 FPS (512 SPF)
Bit depth                   : 24 bits
Compression mode            : Lossy
Stream size                 : 1.42 GiB (21%)
Title                       : Original
Language                    : English
Default                     : No
Forced                      : No

Text #1
ID                          : 4
Format                      : UTF-8
Codec ID                    : S_TEXT/UTF8
Codec ID/Info               : UTF-8 Plain Text
Duration                    : 1 h 20 min
Bit rate                    : 2 b/s
Count of elements           : 27
Stream size                 : 1.21 KiB (0%)
Title                       : Forced
Language                    : Russian
Default                     : Yes
Forced                      : Yes

Text #2
ID                          : 5
Format                      : UTF-8
Codec ID                    : S_TEXT/UTF8
Codec ID/Info               : UTF-8 Plain Text
Duration                    : 2 h 6 min
Bit rate                    : 83 b/s
Count of elements           : 1829
Stream size                 : 77.5 KiB (0%)
Title                       : Full
Language                    : Russian
Default                     : No
Forced                      : No

Text #3
ID                          : 6
Format                      : UTF-8
Codec ID                    : S_TEXT/UTF8
Codec ID/Info               : UTF-8 Plain Text
Duration                    : 2 h 5 min
Bit rate                    : 96 b/s
Count of elements           : 2246
Stream size                 : 88.7 KiB (0%)
Title                       : SDH
Language                    : Russian
Default                     : No
Forced                      : No

Text #4
ID                          : 7
Format                      : UTF-8
Codec ID                    : S_TEXT/UTF8
Codec ID/Info               : UTF-8 Plain Text
Duration                    : 2 h 5 min
Bit rate                    : 56 b/s
Count of elements           : 1958
Stream size                 : 51.9 KiB (0%)
Title                       : Full
Language                    : English
Default                     : No
Forced                      : No

Text #5
ID                          : 8
Format                      : UTF-8
Codec ID                    : S_TEXT/UTF8
Codec ID/Info               : UTF-8 Plain Text
Duration                    : 2 h 5 min
Bit rate                    : 63 b/s
Count of elements           : 2232
Stream size                 : 58.5 KiB (0%)
Title                       : SDH
Language                    : English
Default                     : No
Forced                      : No

Text #6
ID                          : 9
Format                      : UTF-8
Codec ID                    : S_TEXT/UTF8
Codec ID/Info               : UTF-8 Plain Text
Duration                    : 2 h 5 min
Bit rate                    : 85 b/s
Count of elements           : 2232
Stream size                 : 78.8 KiB (0%)
Title                       : SDH Colored
Language                    : English
Default                     : No
Forced                      : No

Menu
00:00:00.000                : en:00:00:00.000
00:00:53.845                : en:00:00:53.845
00:02:10.213                : en:00:02:10.213
00:03:53.150                : en:00:03:53.150
00:06:00.485                : en:00:06:00.485
00:09:27.567                : en:00:09:27.567
00:13:16.045                : en:00:13:16.045
00:14:14.020                : en:00:14:14.020
00:16:12.263                : en:00:16:12.263
00:19:45.101                : en:00:19:45.101
00:22:43.821                : en:00:22:43.821
00:24:37.267                : en:00:24:37.267
00:27:00.035                : en:00:27:00.035
00:30:02.926                : en:00:30:02.926
00:32:54.681                : en:00:32:54.681
00:39:09.764                : en:00:39:09.764
00:41:59.225                : en:00:41:59.225
00:43:20.181                : en:00:43:20.181
00:44:32.128                : en:00:44:32.128
00:48:03.756                : en:00:48:03.756
00:51:58.324                : en:00:51:58.324
00:53:17.528                : en:00:53:17.528
00:57:23.523                : en:00:57:23.523
01:00:16.780                : en:01:00:16.780
01:02:40.882                : en:01:02:40.882
01:04:51.262                : en:01:04:51.262
01:05:29.509                : en:01:05:29.509
01:07:12.028                : en:01:07:12.028
01:08:05.915                : en:01:08:05.915
01:10:00.113                : en:01:10:00.113
01:12:44.193                : en:01:12:44.193
01:14:40.851                : en:01:14:40.851
01:18:30.873                : en:01:18:30.873
01:23:15.741                : en:01:23:15.741
01:26:32.646                : en:01:26:32.646
01:30:33.136                : en:01:30:33.136
01:35:19.672                : en:01:35:19.672
01:37:04.861                : en:01:37:04.861
01:38:52.802                : en:01:38:52.802
01:41:18.531                : en:01:41:18.531
01:43:02.676                : en:01:43:02.676
01:45:27.821                : en:01:45:27.821
01:46:32.177                : en:01:46:32.177
01:49:45.996                : en:01:49:45.996
01:53:33.890                : en:01:53:33.890
01:57:13.902                : en:01:57:13.902
01:58:55.128                : en:01:58:55.128
02:01:34.829                : en:02:01:34.829
02:03:20.893                : en:02:03:20.893
02:06:09.353                : en:02:06:09.353



Скриншоты:
[+] Всего файлов в раздаче - 1:
Solo.A.Star.Wars.Story.2018.BDRip.720p.selezen.mkv6.80 GB

Текущая раздача:
ДатаКомментарии    РазмерПиры
2018-09-14 U Хан Соло: Звёздные Войны. Истории / Solo: A Star Wars Story (2018) BDRip 720p | iTunes 6 К 6.80 GB ↑ 320 ↓ 326

Показать еще раздачи по запросу соло:
Вчера U Хан Соло: Звёздные войны. Истории / Solo: A Star Wars Story (2018) BDRip 1080p от Ash61 | 3D-Video | halfOU | Лицензия 9.69 GB ↑ 148 ↓ 129
2018-09-19 U Хан Соло: Звёздные Войны. Истории / Solo: A Star Wars Story (2018) BDRip-HEVC 1080p от HEVC CLUB | Лицензия 5.97 GB ↑ 63 ↓ 56
2018-09-18 U Хан Соло: Звёздные Войны. Истории / Solo: A Star Wars Story (2018) HDRip от Scarabey | Локализованная версия | Лицензия 1.45 GB ↑ 625 ↓ 15
2018-09-18 U Хан Соло: Звёздные Войны. Истории / Solo: A Star Wars Story (2018) HDRip от Scarabey | Локализованная версия | Лицензия 798.27 MB ↑ 49 ↓ 8
2018-09-18 U Хан Соло: Звёздные Войны. Истории / Solo: A Star Wars Story (2018) HDRip от Scarabey | Локализованная версия | Лицензия 2.17 GB ↑ 80 ↓ 17
2018-09-18 U Хан Соло: Звёздные Войны. Истории / Solo: A Star Wars Story (2018) BDRip-AVC от ExKinoRay | Локализованная версия | Лицензия 2.40 GB ↑ 88 ↓ 13
2018-09-18 U Хан Соло: Звёздные Войны. Истории / Solo: A Star Wars Story (2018) BDRip 720p от ExKinoRay | D | Локализованная версия | Лицензия 5.47 GB ↑ 115 ↓ 35

Отзывы
_XXX_
наконецто дубль выложили, а то сабы (гугл-перевод) неочем )

dimon_0000
ребята , раздайте, а то по нолям все

dimon_0000
Хлопцы, не прэ !!!!!

dimon_0000
Сегодня видно день гидрометеоуролога , все отмечают

dimon_0000
Всем спасибо, прЭ, как надо.!

dimon_0000
Всем спасибо, прЭ, как надо.!

Зарегистрируйтесь чтобы добавить комментарий.
Обратная связь
Copyleft ©