↑↓Torrent.by
Поиск
Логин: Регистрация
Пароль: Восстановить пароль
Загрузка...

Балабол [S02] (2018) WEBRip от GeneralFilm

Скачать balabol-s02-2018-webrip-ot-generalfilm.torrent
U Магнитная ссылка Размер: 8.71 GB Раздают: 58 Качают: 152 Добавлен: 2018-09-14 12:40:22
Балабол [S02] (2018) WEBRip от GeneralFilm

Оригинальное название: Балабол
Год выпуска: 2018
Жанр:  Детектив, комедия, криминал
Режиссер: Владимир Мельник (II)
В ролях: Константин Юшкевич, Вадим Андреев, Инга Оболдина, Ирина Низина, Мария Пирогова, Илья Шляга, Иван Агапов, Игорь Старосельцев, Константин Тополага, Сергей Неудачин, Антон Ескин

О фильме:
Провинциальный оперативник Саня Балабин — волк-одиночка с неиссякаемым чувством юмора, который твердо уверен: со своими личными проблемами и любыми трудностями на работе он сможет справиться без чьей-либо помощи. Эту уверенность Балабина часто рушит сама жизнь, которая все время подкидывает ему просто безвыходные ситуации, и тут на выручку стражу порядка приходят его верные друзья Грибанов и Кузнечик.. В интересах следствия Балабину нередко приходится иметь дело с женщинами легкого поведения и мелкими мошенниками, бомжами и бродячими музыкантами. В новом сезоне Саня продолжит разбираться с бесконечным ворохом криминальных историй, а также всерьез займется личной жизнью и попытается вернуть жену. Любимая бросила его после 19 лет брака, сказав, что супруг женат только на своей работе. Дочь Маша объявляет о своей скорой свадьбе, и по случаю предстоящего торжества у Балабина наступает краткое перемирие с женой. Но героя временное затишье не устраивает, и ради сохранения семьи он готов пойти на отчаянный поступок...

Страна: Россия
Студия: «ТМ Продакшн»
Продолжительность: 16 x ~ 00:50:00
Перевод: Не требуется
Субтитры: нет

Файл
Формат: avi
Качество: WEBRip
Видео: XviD build 73, 720x400 (16:9), 25.000 fps, ~ 1360 Kbps (~ 0.190 bit/pixel)
Звук: 48.0 kHz, AC3, 2/0 ch, 192 kbps

Релиз:


[+] MediaInfo
General
Complete name               : D:RazdachiBalabol.s02.2018.XviD.WEBRip.GeneralFilmBalabol.s02.e01.avi
Format                      : AVI
Format/Info                 : Audio Video Interleave
File size                   : 557 MiB
Duration                    : 49 min 44 s
Overall bit rate            : 1 567 kb/s
Writing application         : VirtualDubMod 1.5.10.3 | www.virtualdub-fr.org || (build 2550/release)
Writing library             : VirtualDubMod build 2550/release

Video
ID                          : 0
Format                      : MPEG-4 Visual
Format profile              : Advanced Simple@L5
Format settings, BVOP       : 1
Format settings, QPel       : No
Format settings, GMC        : No warppoints
Format settings, Matrix     : Custom
Codec ID                    : XVID
Codec ID/Hint               : XviD
Duration                    : 49 min 44 s
Bit rate                    : 1 365 kb/s
Width                       : 720 pixels
Height                      : 400 pixels
Display aspect ratio        : 16:9
Frame rate                  : 25.000 FPS
Color space                 : YUV
Chroma subsampling          : 4:2:0
Bit depth                   : 8 bits
Scan type                   : Progressive
Compression mode            : Lossy
Bits/(Pixel*Frame)          : 0.190
Stream size                 : 486 MiB (87%)
Writing library             : XviD 73

Audio
ID                          : 1
Format                      : AC-3
Format/Info                 : Audio Coding 3
Format settings, Endianness : Big
Codec ID                    : 2000
Duration                    : 49 min 44 s
Bit rate mode               : Constant
Bit rate                    : 192 kb/s
Channel(s)                  : 2 channels
Channel positions           : Front: L R
Sampling rate               : 48.0 kHz
Frame rate                  : 31.250 FPS (1536 SPF)
Bit depth                   : 16 bits
Compression mode            : Lossy
Stream size                 : 68.3 MiB (12%)
Alignment                   : Split accross interleaves
Interleave, duration        : 40  ms (1.00 video frame)
Interleave, preload duratio : 500  ms
Service kind                : Complete Main



Скриншоты:
[+] Всего файлов в раздаче - 16:
Balabol.s02.e01.avi557.32 MB
Balabol.s02.e02.avi557.48 MB
Balabol.s02.e03.avi557.41 MB
Balabol.s02.e04.avi557.15 MB
Balabol.s02.e05.avi557.24 MB
Balabol.s02.e06.avi557.59 MB
Balabol.s02.e07.avi557.10 MB
Balabol.s02.e08.avi557.25 MB
Balabol.s02.e09.avi557.08 MB
Balabol.s02.e10.avi557.25 MB
Balabol.s02.e11.avi557.14 MB
Balabol.s02.e12.avi557.29 MB
Balabol.s02.e13.avi557.22 MB
Balabol.s02.e14.avi557.25 MB
Balabol.s02.e15.avi557.12 MB
Balabol.s02.e16.avi557.58 MB

Текущая раздача:
ДатаКомментарии    РазмерПиры
2018-09-14 U Балабол [S02] (2018) WEBRip от GeneralFilm 8.71 GB ↑ 58 ↓ 152

Показать еще раздачи по запросу балабол:
2018-09-15 U Балабол [02х01-16 из 16] (2018) WEBRip-AVC от Files-x 12.26 GB ↑ 51 ↓ 67
2018-09-13 U Балабол [02х01-16 из 16] (2018) SATRip-AVC 10.21 GB ↑ 4 ↓ 21
2018-09-13 U Балабол [S02] (2018) SATRip 9.90 GB ↑ 191 ↓ 314
2018-09-13 U Балабол [02х01-14 из 16] (2018) WEBRip от Files-x 8.30 GB ↑ 29 ↓ 98
2018-09-12 U Балабол [02х01-14 из 16] (2018) SATRip 8.61 GB ↑ 257 ↓ 309
2018-09-12 U Балабол [02х01-12 из 16] (2018) WEBRip от Files-x 7.07 GB ↑ 79 ↓ 173
2018-09-12 U Балабол [02х01-12 из 16] (2018) SATRip 7.33 GB ↑ 152 ↓ 238

Отзывы
Зарегистрируйтесь чтобы добавить комментарий.
Обратная связь
Copyleft ©