↑↓Torrent.by
Поиск
Логин: Регистрация
Пароль: Восстановить пароль
Загрузка...

Челночницы [S02] (2018) WEB-DLRip от GeneralFilm

Скачать chelnochnicy-s02-2018-web-dlrip-ot-generalfilm.torrent
U Магнитная ссылка Размер: 8.71 GB Раздают: 74 Качают: 160 Добавлен: 2018-09-14 19:11:31
Челночницы [S02] (2018) WEB-DLRip от GeneralFilm

Оригинальное название: Челночницы
Год выпуска: 2018
Жанр:  Драма, мелодрама
Режиссер: Сергей Краснов, Юлия Краснова
В ролях: Мария Порошина, Елена Панова, Ирина Розанова, Светлана Иванова, Зоряна Марченко, Владимир Епифанцев, Константин Юшкевич, Вадим Колганов, Валентина Ляпина, Артём Фадеев, Артур Ваха, Олег Макаров, Илья Соколовский, Екатерина Травова, Людмила Гнилова, Софья Каштанова, Игорь Бочкин, Сергей Перегудов, Александр Дьяченко, Татьяна Агафонова, Илья Акинтьев, Михаил Пшеничный, Артём Осипов, Макар Запорожский, Оксана Мысина, Константин Соловьёв, Екатерина Соломатина, Павел Крайнов, Яна Крайнова, Анастасия Захарова, Анастасия Матвеева, Виктор Овсянников, Мария Свирид, Ксения Радченко (II), Виктор Конухин, Вера Смолина

О фильме:
Челночницы продолжение,новый сезон переносит нас в 1998 год. Элла прочно заняла рынок. Подруги трудятся в торговом центре, все течет своим чередом. Но тут в столицу вернулся Беркут, прятавшийся на Кипре после убийства Лосева. Беркут жаждет возвратить себе свое. Он убежден, что Элла будет напугана и отдаст ему рынок без сопротивления. Но он недооценил Эллу. Ведь ей известно, что ее супруг погиб от рук Беркута. Она теперь не просто не отдаст ему рынок, но еще и хочет усадить его за решетку за убийство Лосева. Элла уволила подружек из торгового центра вернула их на рынок, чтобы там были свои люди. У Светы теперь автомобильная площадка, а у Алисы торговый павильон. Света очень довольна, у нее всегда была мечта об открытии автосервиса. У Оли, которая сидит без работы, неприятности, ее дочка плохо успевает в английском языке, а мама сильно больна, для ее лечения нужны деньги.

Страна: Россия
Студия: Кинокомпания «Русское»
Продолжительность: 16 x ~ 00:51:00
Перевод: Не требуется

Файл
Формат: AVI
Качество: WEB-DLRip
Видео: XviD build 73, 720x400 (16:9), 25.000 fps, ~ 1300 Kbps (~ 0.180 bit/pixel)
Звук: 48.0 kHz, AC3, 2/0 ch, 192 kbps
Субтитры: нет

Релиз:


[+] МедиаИнфо
General
Complete name               : D:RazdachiChelnochnicy.s02.2018.XviD.WEB-DLRip.GeneralFilmChelnochnicy.s02.e01.avi
Format                      : AVI
Format/Info                 : Audio Video Interleave
File size                   : 557 MiB
Duration                    : 51 min 2 s
Overall bit rate            : 1 527 kb/s
Writing application         : VirtualDubMod 1.5.10.3 | www.virtualdub-fr.org || (build 2550/release)
Writing library             : VirtualDubMod build 2550/release

Video
ID                          : 0
Format                      : MPEG-4 Visual
Format profile              : Advanced Simple@L5
Format settings, BVOP       : 1
Format settings, QPel       : No
Format settings, GMC        : No warppoints
Format settings, Matrix     : Custom
Codec ID                    : XVID
Codec ID/Hint               : XviD
Duration                    : 51 min 2 s
Bit rate                    : 1 325 kb/s
Width                       : 720 pixels
Height                      : 400 pixels
Display aspect ratio        : 16:9
Frame rate                  : 25.000 FPS
Color space                 : YUV
Chroma subsampling          : 4:2:0
Bit depth                   : 8 bits
Scan type                   : Progressive
Compression mode            : Lossy
Bits/(Pixel*Frame)          : 0.184
Stream size                 : 484 MiB (87%)
Writing library             : XviD 73

Audio
ID                          : 1
Format                      : AC-3
Format/Info                 : Audio Coding 3
Format settings, Endianness : Big
Codec ID                    : 2000
Duration                    : 51 min 2 s
Bit rate mode               : Constant
Bit rate                    : 192 kb/s
Channel(s)                  : 2 channels
Channel positions           : Front: L R
Sampling rate               : 48.0 kHz
Frame rate                  : 31.250 FPS (1536 SPF)
Bit depth                   : 16 bits
Compression mode            : Lossy
Stream size                 : 70.1 MiB (13%)
Alignment                   : Split accross interleaves
Interleave, duration        : 40  ms (1.00 video frame)
Interleave, preload duratio : 500  ms
Service kind                : Complete Main



Скриншоты:
[+] Всего файлов в раздаче - 16:
Chelnochnicy.s02.e01.avi557.38 MB
Chelnochnicy.s02.e02.avi557.56 MB
Chelnochnicy.s02.e03.avi557.18 MB
Chelnochnicy.s02.e04.avi557.05 MB
Chelnochnicy.s02.e05.avi557.13 MB
Chelnochnicy.s02.e06.avi557.37 MB
Chelnochnicy.s02.e07.avi557.43 MB
Chelnochnicy.s02.e08.avi557.10 MB
Chelnochnicy.s02.e09.avi557.30 MB
Chelnochnicy.s02.e10.avi557.07 MB
Chelnochnicy.s02.e11.avi557.27 MB
Chelnochnicy.s02.e12.avi557.39 MB
Chelnochnicy.s02.e13.avi557.10 MB
Chelnochnicy.s02.e14.avi557.30 MB
Chelnochnicy.s02.e15.avi557.47 MB
Chelnochnicy.s02.e16.avi557.38 MB

Текущая раздача:
ДатаКомментарии    РазмерПиры
2018-09-14 U Челночницы [S02] (2018) WEB-DLRip от GeneralFilm 8.71 GB ↑ 74 ↓ 160

Показать еще раздачи по запросу челночницы:
2018-09-14 U Челночницы [S02] (2018) WEB-DLRip от Files-x 9.71 GB ↑ 26 ↓ 79
2018-09-14 U Челночницы [02х01-16 из 16] (2018) SATRip-AVC 11.25 GB ↑ 0 ↓ 6
2018-09-13 U Челночницы [S02] (2018) SATRip 10.44 GB ↑ 93 ↓ 408
2018-09-13 U Челночницы [02х01-14 из 16] (2018) SATRip 9.19 GB ↑ 66 ↓ 151
2018-09-11 U Челночницы [02х01-10 из 16] (2018) SATRip 6.55 GB ↑ 39 ↓ 51
2018-09-07 U Челночницы [02х01-08 из 16] (2018) SATRip 5.26 GB ↑ 84 ↓ 106
2018-09-05 U Челночницы [02х01-06 из 16] (2018) SATRip 3.94 GB ↑ 194 ↓ 80

Отзывы
Зарегистрируйтесь чтобы добавить комментарий.
Обратная связь
Copyleft ©