↑↓Torrent.by
Поиск
Логин: Регистрация
Пароль: Восстановить пароль
Загрузка...

Мир Юрского периода 2 / Jurassic World: Fallen Kingdom (2018) BDRip-AVC от New-Team | D

Скачать mir-yurskogo-perioda-2-jurassic-world-fallen-kingdom-2018-bdrip-avc-ot-new-team-d.torrent
U Магнитная ссылка Размер: 2.80 GB Раздают: 81 Качают: 31 Добавлен: 2018-09-14 20:55:27
Мир Юрского периода 2 / Jurassic World: Fallen Kingdom (2018) BDRip-AVC от New-Team | D

Мир Юрского периода 2
Jurassic World: Fallen Kingdom

«Жизнь нельзя остановить»

Страна: США
Жанр:  фантастика, боевик, приключения

Год выпуска: 2018
Продолжительность: 02:08:29

Перевод: Профессиональный (полное дублирование) [iTunes]
Субтитры: русские (форсированные, полные), английские (полные, SDH)
Оригинальная аудиодорожка: английский

Режиссер: Хуан Антонио Байона / Juan Antonio Bayona

В ролях: Крис Пратт, Брайс Даллас Ховард, Рейф Сполл, Джастис Смит, Даниэлла Пинеда, Джеймс Кромуэлл, Тоби Джонс, Тед Левайн, Джефф Голдблюм, Б.Д. Вонг, Джеральдин Чаплин, Изабелла Сермон

Описание:
На острове Нублар, где не так давно располагался парк развлечений с динозаврами, правит бал дикая природа, но внезапно пробудившийся вулкан угрожает стереть динозавров с лица земли. Бывшая управляющая парком Клэр Диринг переквалифицировалась в защитницу исчезающих видов и пытается сделать всё, чтобы спасти доисторических животных. На неё выходит Илай Миллс - доверенное лицо миллиардера Бенждамина Локвуда, который много лет назад был соратником профессора Хаммонда. Миллс предлагает Клэр, знакомой с системой безопасности парка, поехать на остров и помочь ему поймать нескольких особей, чтобы вывести их на другой безопасный остров. Клэр даже удается уговорить своего бывшего парня, дрессировщика Оуэена, принять участие в спасательной миссии, но по прибытии в парк, выясняется, что у Миллса совсем другие цели.

Релиз:

Автор рипа: stalkerok

Семпл

Качество видео: BDRip-AVC [Jurassic.World.Fallen.Kingdom.2018.1080p.BluRay.AVC.DTS-HD.MA.7.1-HDChina]
Формат видео: MKV
Видео кодек: AVC
Аудио кодек: AC3
Видео: AVC, 2295 Кбит/сек, 1152x482 (2.40:1), 23,976 кадр/сек
Аудио №1: AC3, 384 Кбит/сек, 48 КГц, 5.1 - русский
Аудио №2: AC3, 448 Кбит/сек, 48 КГц, 5.1 - английский
Навигация по главам: есть


[+] x264/MediaInfo


---[Information] [13.09.2018 20:59:59] x264 [info]: frame I:1464  Avg QP:15.46  size: 62119
---[Information] [13.09.2018 20:59:59] x264 [info]: frame P:40471 Avg QP:17.41  size: 25140
---[Information] [13.09.2018 20:59:59] x264 [info]: frame B:142625 Avg QP:19.90  size:  7712

Общее
Уникальный идентификатор                 : 200064681857513359473403224414931673475 (0x96830E6086A480D9827AAC1C13E86183)
Полное имя                               : O:!RipsJurassic World Fallen Kingdom (2018)Jurassic.World.Fallen.Kingdom.2018.BDRip.x264.Rus.Eng.stalkerok.New-Team.mkv
Формат                                   : Matroska
Версия формата                           : Version 4 / Version 2
Размер файла                             : 2,80 Гбайт
Продолжительность                        : 2 ч. 8 м.
Общий поток                              : 3125 Кбит/сек
Название фильма                          : Jurassic World: Fallen Kingdom (2018) | Rip by stalkerok
Дата кодирования                         : UTC 2018-09-13 21:18:38
Программа кодирования                    : mkvmerge v8.6.1 ('Flying') 64bit
Библиотека кодирования                   : libebml v1.3.3 + libmatroska v1.4.4

Видео
Идентификатор                            : 1
Формат                                   : AVC
Формат/Информация                        : Advanced Video Codec
Профиль формата                          : High@L4.1
Параметр CABAC формата                   : Да
Параметр ReFrames формата                : 12 кадров
Идентификатор кодека                     : V_MPEG4/ISO/AVC
Продолжительность                        : 2 ч. 8 м.
Битрейт                                  : 2295 Кбит/сек
Ширина                                   : 1152 пикселя
Высота                                   : 482 пикселя
Соотношение сторон                       : 2,40:1
Режим частоты кадров                     : Постоянный
Частота кадров                           : 23,976 (24000/1001) кадра/сек
Цветовое пространство                    : YUV
Субдискретизация насыщенности            : 4:2:0
Битовая глубина                          : 8 бит
Тип развёртки                            : Прогрессивная
Бит/(Пиксели*Кадры)                      : 0.172
Размер потока                            : 2,06 Гбайт (73%)
Заголовок                                : Jurassic World: Fallen Kingdom (2018) | Rip by stalkerok
Библиотека кодирования                   : x264 core 157 r2932 303c484
Настройки программы                      : cabac=1 / ref=12 / deblock=1:-3:-2 / analyse=0x3:0x133 / me=umh / subme=11 / psy=1 / psy_rd=1.00:0.00 / mixed_ref=1 / me_range=32 / chroma_me=1 / trellis=2 / 8x8dct=1 / cqm=0 / deadzone=21,11 / fast_pskip=0 / chroma_qp_offset=-2 / threads=12 / lookahead_threads=3 / sliced_threads=0 / nr=0 / decimate=1 / interlaced=0 / bluray_compat=0 / constrained_intra=0 / bframes=13 / b_pyramid=2 / b_adapt=2 / b_bias=0 / direct=3 / weightb=1 / open_gop=0 / weightp=2 / keyint=240 / keyint_min=23 / scenecut=40 / intra_refresh=0 / rc_lookahead=60 / rc=crf / mbtree=0 / crf=17.6 / qcomp=0.65 / qpmin=0 / qpmax=69 / qpstep=4 / vbv_maxrate=50000 / vbv_bufsize=62500 / crf_max=0.0 / nal_hrd=none / filler=0 / ip_ratio=1.40 / pb_ratio=1.30 / aq=3:0.80 / zones=170628,184559,q=32
Default                                  : Да
Forced                                   : Нет

Аудио #1
Идентификатор                            : 2
Формат                                   : AC-3
Формат/Информация                        : Audio Coding 3
Расширение режима                        : CM (complete main)
Параметр Endianness формата              : Big
Идентификатор кодека                     : A_AC3
Продолжительность                        : 2 ч. 8 м.
Вид битрейта                             : Постоянный
Битрейт                                  : 384 Кбит/сек
Каналы                                   : 6 каналов
Расположение каналов                     : Front: L C R, Side: L R, LFE
Частота                                  : 48,0 КГц
Частота кадров                           : 31,250 кадров/сек (1536 spf)
Метод сжатия                             : С потерями
Размер потока                            : 352 Мбайт (12%)
Язык                                     : Russian
Default                                  : Да
Forced                                   : Нет

Аудио #2
Идентификатор                            : 3
Формат                                   : AC-3
Формат/Информация                        : Audio Coding 3
Расширение режима                        : CM (complete main)
Параметр Endianness формата              : Big
Идентификатор кодека                     : A_AC3
Продолжительность                        : 2 ч. 8 м.
Вид битрейта                             : Постоянный
Битрейт                                  : 448 Кбит/сек
Каналы                                   : 6 каналов
Расположение каналов                     : Front: L C R, Side: L R, LFE
Частота                                  : 48,0 КГц
Частота кадров                           : 31,250 кадров/сек (1536 spf)
Метод сжатия                             : С потерями
Размер потока                            : 411 Мбайт (14%)
Язык                                     : English
Default                                  : Нет
Forced                                   : Нет

Текст #1
Идентификатор                            : 4
Формат                                   : UTF-8
Идентификатор кодека                     : S_TEXT/UTF8
Идентификатор кодека/Информация          : UTF-8 Plain Text
Продолжительность                        : 1 ч. 34 м.
Битрейт                                  : 0 бит/сек
Count of elements                        : 6
Размер потока                            : 296 байт (0%)
Заголовок                                : Forced
Язык                                     : Russian
Default                                  : Да
Forced                                   : Нет

Текст #2
Идентификатор                            : 5
Формат                                   : UTF-8
Идентификатор кодека                     : S_TEXT/UTF8
Идентификатор кодека/Информация          : UTF-8 Plain Text
Продолжительность                        : 1 ч. 56 м.
Битрейт                                  : 73 бит/сек
Count of elements                        : 1725
Размер потока                            : 62,7 Кбайт (0%)
Заголовок                                : Перевод: Ruf
Язык                                     : Russian
Default                                  : Нет
Forced                                   : Нет

Текст #3
Идентификатор                            : 6
Формат                                   : UTF-8
Идентификатор кодека                     : S_TEXT/UTF8
Идентификатор кодека/Информация          : UTF-8 Plain Text
Продолжительность                        : 2 ч. 6 м.
Битрейт                                  : 66 бит/сек
Count of elements                        : 1395
Размер потока                            : 62,1 Кбайт (0%)
Заголовок                                : Перевод: FOCS
Язык                                     : Russian
Default                                  : Нет
Forced                                   : Нет

Текст #4
Идентификатор                            : 7
Формат                                   : UTF-8
Идентификатор кодека                     : S_TEXT/UTF8
Идентификатор кодека/Информация          : UTF-8 Plain Text
Продолжительность                        : 2 ч. 7 м.
Битрейт                                  : 40 бит/сек
Count of elements                        : 1381
Размер потока                            : 37,4 Кбайт (0%)
Язык                                     : English
Default                                  : Нет
Forced                                   : Нет

Текст #5
Идентификатор                            : 8
Формат                                   : UTF-8
Идентификатор кодека                     : S_TEXT/UTF8
Идентификатор кодека/Информация          : UTF-8 Plain Text
Продолжительность                        : 2 ч. 8 м.
Битрейт                                  : 55 бит/сек
Count of elements                        : 2117
Размер потока                            : 52,5 Кбайт (0%)
Заголовок                                : SDH
Язык                                     : English
Default                                  : Нет
Forced                                   : Нет

Меню
00:00:00.000                             : en:Chapter 1
00:07:13.224                             : en:Chapter 2
00:12:01.554                             : en:Chapter 3
00:17:17.745                             : en:Chapter 4
00:21:17.192                             : en:Chapter 5
00:28:49.811                             : en:Chapter 6
00:35:04.685                             : en:Chapter 7
00:40:51.574                             : en:Chapter 8
00:46:32.498                             : en:Chapter 9
00:52:04.996                             : en:Chapter 10
01:00:59.197                             : en:Chapter 11
01:06:50.256                             : en:Chapter 12
01:11:07.638                             : en:Chapter 13
01:17:21.094                             : en:Chapter 14
01:26:55.210                             : en:Chapter 15
01:33:01.492                             : en:Chapter 16
01:42:55.878                             : en:Chapter 17
01:50:01.553                             : en:Chapter 18
01:54:56.222                             : en:Chapter 19
01:58:37.985                             : en:Chapter 20




Скриншоты:
[+] Всего файлов в раздаче - 1:
Jurassic.World.Fallen.Kingdom.2018.BDRip.x264.Rus.Eng.stalkerok.New-Team.mkv2.80 GB

Текущая раздача:
ДатаКомментарии    РазмерПиры
2018-09-14 U Мир Юрского периода 2 / Jurassic World: Fallen Kingdom (2018) BDRip-AVC от New-Team | D 2.80 GB ↑ 81 ↓ 31

Показать еще раздачи по запросу юрского:
2018-09-17 U Мир Юрского периода 2 / Jurassic World: Fallen Kingdom (2018) BDRip 720p от Scarabey | iTunes 4.20 GB ↑ 49 ↓ 16
2018-09-14 U Мир Юрского периода 2 / Jurassic World: Fallen Kingdom (2018) BDRip от ExKinoRay | iTunes 2.13 GB ↑ 98 ↓ 37
2018-09-14 U Мир Юрского периода 2 / Jurassic World: Fallen Kingdom (2018) BDRip-AVC от New-Team | D 1.48 GB ↑ 42 ↓ 10
2018-09-14 U Мир Юрского периода 2 / Jurassic World: Fallen Kingdom (2018) BDRip от ExKinoRay | iTunes 1.46 GB ↑ 51 ↓ 15
2018-09-13 U Мир Юрского периода 2 / Jurassic World: Fallen Kingdom (2018) BDRip-AVC от potroks | iTunes 2.85 GB ↑ 59 ↓ 23
2018-09-13 U Мир Юрского периода 2 / Jurassic World: Fallen Kingdom (2018) BDRip 1080p от qqss44 & MegaPeer | iTunes 7.51 GB ↑ 154 ↓ 112
2018-09-12 U Мир Юрского периода 2 / Jurassic World: Fallen Kingdom (2018) BDRip 1080p от Ash61 | 3D-Video | halfOU | iTunes 1К10.05 GB ↑ 165 ↓ 265

Отзывы
Зарегистрируйтесь чтобы добавить комментарий.
Обратная связь
Copyleft ©