↑↓Torrent.by
Поиск
Логин: Регистрация
Пароль: Восстановить пароль
Загрузка...

Потерянное отражение: Исповедь содержанки (2017) WEB-DL 1080p | iTunes

Скачать poteryannoe-otrazhenie-ispoved-soderzhanki-2017-web-dl-1080p-itunes.torrent
U Магнитная ссылка Размер: 3.58 GB Раздают: 213 Качают: 133 Добавлен: 2018-09-16 09:45:14
Потерянное отражение: Исповедь содержанки (2017) WEB-DL 1080p | iTunes

Название: Потерянное отражение: Исповедь содержанки
Год выхода: 2017
Жанр: Драма
Режиссер: Елена Жигаева
В ролях: Анна Чурина, Саша Летта, Владимир Топцов, Мария Атлас-Попова, Ольга Павловец, Ольга Лапшина, Дмитрий Ланчихин, Наталья Клюкина, Владимир Скворцов, Наталья Мишкина

О фильме:
Эта история сложилась из множества реальных рассказов о жизни тех, кто предпочел остаться за кадром. Юная, полная жизненной энергии провинциальная девушка отплясывает под «Мальчик мой». Она даже не подозревает, что вскоре, отправившись покорять столицу, встретит мужчину, чье появление оборвет восторженный полет ее души. И героиня превратится в ту, кого презрительно называют «содержанка». Пройдя нелегкий путь от светлых надежд до полной потери себя ради материальных благ, она должна найти силы вырваться из мучительной череды ожиданий, пустот и унизительных сцен. Но после стольких лет зависимости сможет ли она решиться на этот спасительный шаг?

Страна: Россия
Студия: Киношкола «Лестница»,  Кинокомпания «Магнум», Русская Фильм Группа
Продолжительность: 01:31:57
Перевод:
 • Не требуется | iTunes

Файл
Качество: WEB-DL 1080p
Формат: MKV
Кодек: MPEG-4 AVC
Видео: 1920x1040 (1,85:1), 24 fps, MPEG-4 AVC ~ 5195 kbps avg, 0.108 bit/pixel
Аудио: AC3, 48 kHz, 6 ch, ~384.00 kbps avg | русский | iTunes

Субтитры: Отсутствуют
Семпл


[+] Инфо-файл
Общее
Уникальный идентификатор                 : 237458251062796881993704016751376567303 (0xB2A4CBAE2B66F5B1C0918852593D8C07)
Полное имя                               : ISPOVED_SODERZHANKI_2017_WEB-DL 1080p_KAZTORKA.mkv
Формат                                   : Matroska
Версия формата                           : Version 4 / Version 2
Размер файла                             : 3,58 Гбайт
Продолжительность                        : 1 ч. 31 м.
Общий поток                              : 5581 Кбит/сек
Название фильма                          : Потерянное отражение: Исповедь содержанки (2017) reliz by KAZTORKA
Дата кодирования                         : UTC 2018-09-15 20:03:15
Программа кодирования                    : mkvmerge v20.0.0 ('I Am The Sun') 64-bit
Библиотека кодирования                   : libebml v1.3.5 + libmatroska v1.4.8

Видео
Идентификатор                            : 1
Формат                                   : AVC
Формат/Информация                        : Advanced Video Codec
Профиль формата                          : High@L4
Настройки формата                        : CABAC / 4 Ref Frames
Параметр CABAC формата                   : Да
Параметр RefFrames формата               : 4 кадра
Идентификатор кодека                     : V_MPEG4/ISO/AVC
Продолжительность                        : 1 ч. 31 м.
Битрейт                                  : 5195 Кбит/сек
Ширина                                   : 1920 пикселей
Высота                                   : 1040 пикселей
Соотношение сторон                       : 1,85:1
Режим частоты кадров                     : Постоянный
Частота кадров                           : 24,000 кадра/сек
Цветовое пространство                    : YUV
Субдискретизация насыщенности            : 4:2:0
Битовая глубина                          : 8 бит
Тип развёртки                            : Прогрессивная
Бит/(Пиксели*Кадры)                      : 0.108
Размер потока                            : 3,34 Гбайт (93%)
Заголовок                                : ISPOVED_SODERZHANKI_2017_WEB-DL 1080p_KAZTORKA
Язык                                     : English
Default                                  : Да
Forced                                   : Нет
Цветовой диапазон                        : Limited
Основные цвета                           : BT.709
Характеристики трансфера                 : BT.709
Коэффициенты матрицы                     : BT.709

Аудио
Идентификатор                            : 2
Формат                                   : AC-3
Формат/Информация                        : Audio Coding 3
Идентификатор кодека                     : A_AC3
Продолжительность                        : 1 ч. 31 м.
Вид битрейта                             : Постоянный
Битрейт                                  : 384 Кбит/сек
Каналы                                   : 6 каналов
Расположение каналов                     : Front: L C R, Side: L R, LFE
Частота                                  : 48,0 КГц
Частота кадров                           : 31,250 кадров/сек (1536 SPF)
Битовая глубина                          : 16 бит
Метод сжатия                             : С потерями
Задержка видео                           : -42 мс.
Размер потока                            : 253 Мбайт (7%)
Заголовок                                : iTunes | ISPOVED_SODERZHANKI_2017_WEB-DL 1080p_KAZTORKA
Язык                                     : Russian
Default                                  : Да
Forced                                   : Нет

Меню
00:00:00.000                             : en:Глава 1
00:09:28.458                             : en:Глава 2
00:15:22.916                             : en:Глава 3
00:21:02.207                             : en:Глава 4
00:27:41.707                             : en:Глава 5
00:32:46.582                             : en:Глава 6
00:37:39.915                             : en:Глава 7
00:42:10.623                             : en:Глава 8
00:46:31.373                             : en:Глава 9
00:53:52.414                             : en:Глава 10
00:58:51.580                             : en:Глава 11
01:04:55.913                             : en:Глава 12
01:11:14.454                             : en:Глава 13
01:19:12.287                             : en:Глава 14
01:26:20.745                             : en:Глава 15




Скриншоты:
[+] Всего файлов в раздаче - 1:
ISPOVED_SODERZHANKI_2017_WEB-DL 1080p_KAZTORKA.mkv3.58 GB

Текущая раздача:
ДатаКомментарии    РазмерПиры
2018-09-16 U Потерянное отражение: Исповедь содержанки (2017) WEB-DL 1080p | iTunes 3.58 GB ↑ 213 ↓ 133

Похожие раздачи по запросу - потерянное:
2018-09-16 U Потерянное отражение: Исповедь содержанки (2017) WEB-DLRip от MegaPeer | iTunes 1.46 GB ↑ 256 ↓ 116
2018-09-15 U Потерянное счастье (2018) WEB-DLRip от Files-x 1.36 GB ↑ 209 ↓ 95
2015-07-19 U Потерянное время / Lost Time (2014) BDRip от Twi7ter | L1 1К1.46 GB ↑ 434 ↓ 115
2014-10-26 U Потерянное время / Lost Time (2014) WEB-DL 720p | L1 1К2.83 GB ↑ 177 ↓ 109
2014-02-08 U Упавшая с небес / Потерянное небом / Sora no Otoshimono [ТV] [13 из 13] [2009, DTVRip] 6.03 GB ↑ 4 ↓ 12
2013-11-25 U Феи: Потерянное сокровище / Tinker Bell and the Lost Treasure (2009) BDRip от HQ-VIDEO 1.46 GB ↑ 288 ↓ 18

Отзывы
Зарегистрируйтесь чтобы добавить комментарий.
Обратная связь
Copyleft ©